Поиск

(Jazz \ Fusion) Theodosii Spassov - Welkya - 1994, FLAC (tracks+.cue) lossless

Треклист:
Teodosii Spassov / Welkya
Жанр: Jazz \ Fusion
Страна-производитель диска: Болгария
Год издания диска: 1994
Издатель (лейбл): Gega New
Номер по каталогу: GD 141
Аудио кодек: FLAC (*.flac)
Тип рипа: tracks+.cue
Битрейт аудио: lossless
Продолжительность: 57:33
Источник (релизер): собственный рип
Наличие сканов в содержимом раздачи: да
Треклист:
01 - TumPaTaTaTakunTaTa [04:48]
02 - Galeno Horo [05:08]
03 - Ruchenitsa Ruchkanitsa [05:01]
04 - Lalitsa [02:56]
05 - Momina Muka [03:06]
06 - Krai Selo Na Bairite [03:22]
07 - Unnamed [01:28]
08 - Nyakuda V Rodopite [05:06]
09 - Graovo Dance [04:01]
10 - Byal Samolet [07:04]
11 - Manipulation [05:27]
12 - Balada Za Edna Naduta Gaida [06:03]
13 - Welkya [03:59]
 
Лог создания рипа
Exact Audio Copy V0.99 prebeta 5 from 4. May 2009
EAC extraction logfile from 2. September 2010, 18:42
Teodosii Spassov / Welkya
Used drive : PLEXTOR DVDR PX-755A Adapter: 4 ID: 0
Read mode : Secure
Utilize accurate stream : Yes
Defeat audio cache : Yes
Make use of C2 pointers : No
Read offset correction : 30
Overread into Lead-In and Lead-Out : Yes
Fill up missing offset samples with silence : Yes
Delete leading and trailing silent blocks : No
Null samples used in CRC calculations : Yes
Used interface : Native Win32 interface for Win NT & 2000
Gap handling : Appended to previous track
Used output format : User Defined Encoder
Selected bitrate : 128 kBit/s
Quality : High
Add ID3 tag : No
Command line compressor : C:\Program Files\FLAC\flac.exe
Additional command line options : -8 -V -T "ARTIST=%a" -T "TITLE=%t" -T "ALBUM=%g" -T "DATE=%y" -T "TRACKNUMBER=%n" -T "GENRE=%m" -T "COMMENT=Ripped by andygrakoff aka yetiisyou" %s
TOC of the extracted CD
Track | Start | Length | Start sector | End sector
---------------------------------------------------------
1 | 0:00.00 | 4:48.12 | 0 | 21611
2 | 4:48.12 | 5:08.00 | 21612 | 44711
3 | 9:56.12 | 5:01.13 | 44712 | 67299
4 | 14:57.25 | 2:56.50 | 67300 | 80549
5 | 17:54.00 | 3:06.25 | 80550 | 94524
6 | 21:00.25 | 3:22.62 | 94525 | 109736
7 | 24:23.12 | 1:28.15 | 109737 | 116351
8 | 25:51.27 | 5:06.73 | 116352 | 139374
9 | 30:58.25 | 4:01.00 | 139375 | 157449
10 | 34:59.25 | 7:04.00 | 157450 | 189249
11 | 42:03.25 | 5:27.62 | 189250 | 213836
12 | 47:31.12 | 6:03.13 | 213837 | 241074
13 | 53:34.25 | 3:59.12 | 241075 | 259011
Track 1
Filename C:\Teodosii Spassov - Welkya (GD 141) 1994\01 – TumPaTaTaTakunTaTa.wav
Pre-gap length 0:00:02.00
Peak level 94.6 %
Track quality 100.0 %
Test CRC D49F3EC5
Copy CRC D49F3EC5
Track not present in AccurateRip database
Copy OK
Track 2
Filename C:\Teodosii Spassov - Welkya (GD 141) 1994\02 – Galeno Horo.wav
Peak level 91.1 %
Track quality 100.0 %
Test CRC D8E3C784
Copy CRC D8E3C784
Track not present in AccurateRip database
Copy OK
Track 3
Filename C:\Teodosii Spassov - Welkya (GD 141) 1994\03 – Ruchenitsa Ruchkanitsa.wav
Peak level 87.7 %
Track quality 99.9 %
Test CRC 1CDF85C6
Copy CRC 1CDF85C6
Track not present in AccurateRip database
Copy OK
Track 4
Filename C:\Teodosii Spassov - Welkya (GD 141) 1994\04 – Lalitsa.wav
Peak level 78.3 %
Track quality 99.9 %
Test CRC DD5D433A
Copy CRC DD5D433A
Track not present in AccurateRip database
Copy OK
Track 5
Filename C:\Teodosii Spassov - Welkya (GD 141) 1994\05 – Momina Muka.wav
Peak level 96.2 %
Track quality 100.0 %
Test CRC F7D6188D
Copy CRC F7D6188D
Track not present in AccurateRip database
Copy OK
Track 6
Filename C:\Teodosii Spassov - Welkya (GD 141) 1994\06 – Krai Selo Na Bairite.wav
Peak level 87.7 %
Track quality 100.0 %
Test CRC 0B264407
Copy CRC 0B264407
Track not present in AccurateRip database
Copy OK
Track 7
Filename C:\Teodosii Spassov - Welkya (GD 141) 1994\07 – Unnamed.wav
Peak level 80.7 %
Track quality 100.0 %
Test CRC 8BD27F11
Copy CRC 8BD27F11
Track not present in AccurateRip database
Copy OK
Track 8
Filename C:\Teodosii Spassov - Welkya (GD 141) 1994\08 – Nyakuda V Rodopite.wav
Peak level 91.1 %
Track quality 100.0 %
Test CRC 8E356F05
Copy CRC 8E356F05
Track not present in AccurateRip database
Copy OK
Track 9
Filename C:\Teodosii Spassov - Welkya (GD 141) 1994\09 – Graovo Dance.wav
Peak level 89.1 %
Track quality 100.0 %
Test CRC A7100450
Copy CRC A7100450
Track not present in AccurateRip database
Copy OK
Track 10
Filename C:\Teodosii Spassov - Welkya (GD 141) 1994\10 – Byal Samolet.wav
Peak level 83.1 %
Track quality 100.0 %
Test CRC 7D53C8D5
Copy CRC 7D53C8D5
Track not present in AccurateRip database
Copy OK
Track 11
Filename C:\Teodosii Spassov - Welkya (GD 141) 1994\11 – Manipulation.wav
Peak level 93.2 %
Track quality 100.0 %
Test CRC E7DBB19D
Copy CRC E7DBB19D
Track not present in AccurateRip database
Copy OK
Track 12
Filename C:\Teodosii Spassov - Welkya (GD 141) 1994\12 – Balada Za Edna Naduta Gaida.wav
Peak level 79.3 %
Track quality 100.0 %
Test CRC 346910E6
Copy CRC 346910E6
Track not present in AccurateRip database
Copy OK
Track 13
Filename C:\Teodosii Spassov - Welkya (GD 141) 1994\13 – Welkya.wav
Peak level 94.2 %
Track quality 100.0 %
Test CRC 18D93BB1
Copy CRC 18D93BB1
Track not present in AccurateRip database
Copy OK
None of the tracks are present in the AccurateRip database
No errors occurred
End of status report
 
Содержание индексной карты (.CUE)
REM GENRE "World/Eastern European"
REM DATE 1994
REM DISCID B30D7D0D
REM COMMENT "ExactAudioCopy v0.99pb5"
PERFORMER "Teodosii Spassov"
TITLE "Welkya"
FILE "01 – TumPaTaTaTakunTaTa.wav" WAVE
TRACK 01 AUDIO
TITLE "TumPaTaTaTakunTaTa"
PERFORMER "Teodosii Spassov"
FLAGS DCP
INDEX 01 00:00:00
FILE "02 – Galeno Horo.wav" WAVE
TRACK 02 AUDIO
TITLE "Galeno Horo"
PERFORMER "Teodosii Spassov"
FLAGS DCP
INDEX 01 00:00:00
FILE "03 – Ruchenitsa Ruchkanitsa.wav" WAVE
TRACK 03 AUDIO
TITLE "Ruchenitsa Ruchkanitsa"
PERFORMER "Teodosii Spassov"
FLAGS DCP
INDEX 01 00:00:00
FILE "04 – Lalitsa.wav" WAVE
TRACK 04 AUDIO
TITLE "Lalitsa"
PERFORMER "Teodosii Spassov"
FLAGS DCP
INDEX 01 00:00:00
FILE "05 – Momina Muka.wav" WAVE
TRACK 05 AUDIO
TITLE "Momina Muka"
PERFORMER "Teodosii Spassov"
FLAGS DCP
INDEX 01 00:00:00
FILE "06 – Krai Selo Na Bairite.wav" WAVE
TRACK 06 AUDIO
TITLE "Krai Selo Na Bairite"
PERFORMER "Teodosii Spassov"
FLAGS DCP
INDEX 01 00:00:00
FILE "07 – Unnamed.wav" WAVE
TRACK 07 AUDIO
TITLE "Unnamed"
PERFORMER "Teodosii Spassov"
FLAGS DCP
INDEX 01 00:00:00
FILE "08 – Nyakuda V Rodopite.wav" WAVE
TRACK 08 AUDIO
TITLE "Nyakuda V Rodopite"
PERFORMER "Teodosii Spassov"
FLAGS DCP
INDEX 01 00:00:00
FILE "09 – Graovo Dance.wav" WAVE
TRACK 09 AUDIO
TITLE "Graovo Dance"
PERFORMER "Teodosii Spassov"
FLAGS DCP
INDEX 01 00:00:00
FILE "10 – Byal Samolet.wav" WAVE
TRACK 10 AUDIO
TITLE "Byal Samolet"
PERFORMER "Teodosii Spassov"
FLAGS DCP
INDEX 01 00:00:00
FILE "11 – Manipulation.wav" WAVE
TRACK 11 AUDIO
TITLE "Manipulation"
PERFORMER "Teodosii Spassov"
FLAGS DCP
INDEX 01 00:00:00
FILE "12 – Balada Za Edna Naduta Gaida.wav" WAVE
TRACK 12 AUDIO
TITLE "Balada Za Edna Naduta Gaida"
PERFORMER "Teodosii Spassov"
FLAGS DCP
INDEX 01 00:00:00
FILE "13 – Welkya.wav" WAVE
TRACK 13 AUDIO
TITLE "Welkya"
PERFORMER "Teodosii Spassov"
FLAGS DCP
INDEX 01 00:00:00
16:55
328
Нет комментариев. Ваш будет первым!