Поиск

(rock) [CD] Eddie Hinton - A Mighty Field Of Vision (The Anthology 1969-1993) - 2005, FLAC (tracks+.cue), lossless

(rock) [CD] Eddie Hinton - A Mighty Field Of Vision (The Anthology 1969-1993) - 2005, FLAC (tracks+.cue), lossless
Треклист:
Eddie Hinton - A Mighty Field Of Vision (The Anthology 1969-1993)
Жанр: rock
Носитель: CD
Страна-производитель диска (релиза): Australia
Год издания: 2005
Издатель (лейбл): Raven Records
Номер по каталогу: RVCD-206
Format: CD, Compilation, Original
Страна исполнителя (группы): US
Аудиокодек: FLAC (*.flac)
Тип рипа: tracks+.cue
Битрейт аудио: lossless
Продолжительность: 01:14:35
Источник (релизер): What.CD (cre618)
Наличие сканов в содержимом раздачи: немного
Треклист:
01. I Got The Feeling
02. You Got Me Singing
03. Concept World
04. Shout Bamalama
05. Just Like The Fool That I Was
06. Heavy Makes You Happy (Sha-Na-Boom-Boom)
07. Got Down Last Saturday Night
08. My Searching Is Over
09. Sad & Lonesome
10. I Want A Woman
11. Here I Am
12. Sad Song
13. Three Hundred Pounds Of Hongry
14. What Would I Do Without You
15. Hymn For Lonely Hearts
16. Something Heavy
17. Everybody Needs Love
18. Cry & Moan
19. Bottom Of The Well
20. Rock Of My Soul
21. Very Blue Highway
 
Лог создания рипа
X Lossless Decoder version 20110312 (130.0)
XLD extraction logfile from 2011-03-27 07:38:17 -0700
Eddie Hinton / The Anthology 1969-1993: A Mighty Field of Vision
Used drive : HL-DT-ST DVDRW GA11N (revision JA18)
Ripper mode : CDParanoia III 10.2
Disable audio cache : OK for the drive with a cache less than 2750KiB
Make use of C2 pointers : NO
Read offset correction : 667
Max retry count : 100
Gap status : Analyzed, Appended
TOC of the extracted CD
Track | Start | Length | Start sector | End sector
---------------------------------------------------------
1 | 00:00:00 | 05:22:16 | 0 | 24165
2 | 05:22:16 | 03:31:09 | 24166 | 39999
3 | 08:53:25 | 04:58:64 | 40000 | 62413
4 | 13:52:14 | 03:46:08 | 62414 | 79371
5 | 17:38:22 | 02:56:40 | 79372 | 92611
6 | 20:34:62 | 04:50:25 | 92612 | 114386
7 | 25:25:12 | 02:45:05 | 114387 | 126766
8 | 28:10:17 | 02:16:01 | 126767 | 136967
9 | 30:26:18 | 03:21:73 | 136968 | 152115
10 | 33:48:16 | 03:10:00 | 152116 | 166365
11 | 36:58:16 | 03:37:72 | 166366 | 182712
12 | 40:36:13 | 03:58:02 | 182713 | 200564
13 | 44:34:15 | 02:37:17 | 200565 | 212356
14 | 47:11:32 | 02:53:46 | 212357 | 225377
15 | 50:05:03 | 04:12:25 | 225378 | 244302
16 | 54:17:28 | 03:34:68 | 244303 | 260420
17 | 57:52:21 | 03:34:21 | 260421 | 276491
18 | 61:26:42 | 03:52:22 | 276492 | 293913
19 | 65:18:64 | 02:46:16 | 293914 | 306379
20 | 68:05:05 | 03:35:71 | 306380 | 322575
21 | 71:41:01 | 02:54:48 | 322576 | 335673
AccurateRip Summary
Disc not found in AccurateRip DB.
All Tracks
Album gain : -6.58 dB
Peak : 1.000000
Statistics
Read error : 0
Skipped (treated as error) : 0
Edge jitter error (maybe fixed) : 0
Atom jitter error (maybe fixed) : 0
Drift error (maybe fixed) : 0
Dropped bytes error (maybe fixed) : 0
Duplicated bytes error (maybe fixed) : 0
Track 01
Filename : /Users/Home/Desktop/Eddie Hinton - 2005 - A Mighty Field Of Vision FLAC/01 - I Got the Feeling.flac
Pre-gap length : 00:02:00
Track gain : -5.23 dB
Peak : 1.000000
CRC32 hash (test run) : 41B351D3
CRC32 hash : 41B351D3
CRC32 hash (skip zero) : 39EB9BE8
AccurateRip signature : D2E70FB0
->Track not present in AccurateRip database.
Statistics
Read error : 0
Skipped (treated as error) : 0
Edge jitter error (maybe fixed) : 0
Atom jitter error (maybe fixed) : 0
Drift error (maybe fixed) : 0
Dropped bytes error (maybe fixed) : 0
Duplicated bytes error (maybe fixed) : 0
Inconsistency in error sectors : 0
Track 02
Filename : /Users/Home/Desktop/Eddie Hinton - 2005 - A Mighty Field Of Vision FLAC/02 - You Got Me Singing.flac
Pre-gap length : 00:02:57
Track gain : -5.65 dB
Peak : 0.999969
CRC32 hash (test run) : 2332551E
CRC32 hash : 2332551E
CRC32 hash (skip zero) : EB116150
AccurateRip signature : 00DC3050
->Track not present in AccurateRip database.
Statistics
Read error : 0
Skipped (treated as error) : 0
Edge jitter error (maybe fixed) : 0
Atom jitter error (maybe fixed) : 0
Drift error (maybe fixed) : 0
Dropped bytes error (maybe fixed) : 0
Duplicated bytes error (maybe fixed) : 0
Inconsistency in error sectors : 0
Track 03
Filename : /Users/Home/Desktop/Eddie Hinton - 2005 - A Mighty Field Of Vision FLAC/03 - Concept World.flac
Pre-gap length : 00:02:65
Track gain : -3.94 dB
Peak : 1.000000
CRC32 hash (test run) : 6DD895ED
CRC32 hash : 6DD895ED
CRC32 hash (skip zero) : DC487B61
AccurateRip signature : F91D71F8
->Track not present in AccurateRip database.
Statistics
Read error : 0
Skipped (treated as error) : 0
Edge jitter error (maybe fixed) : 0
Atom jitter error (maybe fixed) : 0
Drift error (maybe fixed) : 0
Dropped bytes error (maybe fixed) : 0
Duplicated bytes error (maybe fixed) : 0
Inconsistency in error sectors : 0
Track 04
Filename : /Users/Home/Desktop/Eddie Hinton - 2005 - A Mighty Field Of Vision FLAC/04 - Shout Bamalama.flac
Pre-gap length : 00:02:08
Track gain : -6.44 dB
Peak : 1.000000
CRC32 hash (test run) : 5FD025C4
CRC32 hash : 5FD025C4
CRC32 hash (skip zero) : 6CAF7FDE
AccurateRip signature : 02C480D2
->Track not present in AccurateRip database.
Statistics
Read error : 0
Skipped (treated as error) : 0
Edge jitter error (maybe fixed) : 0
Atom jitter error (maybe fixed) : 0
Drift error (maybe fixed) : 0
Dropped bytes error (maybe fixed) : 0
Duplicated bytes error (maybe fixed) : 0
Inconsistency in error sectors : 0
Track 05
Filename : /Users/Home/Desktop/Eddie Hinton - 2005 - A Mighty Field Of Vision FLAC/05 - Just Like the Fool That I Was.flac
Pre-gap length : 00:02:38
Track gain : -7.29 dB
Peak : 1.000000
CRC32 hash (test run) : 214D3717
CRC32 hash : 214D3717
CRC32 hash (skip zero) : 4B8943FF
AccurateRip signature : 86AE55BF
->Track not present in AccurateRip database.
Statistics
Read error : 0
Skipped (treated as error) : 0
Edge jitter error (maybe fixed) : 0
Atom jitter error (maybe fixed) : 0
Drift error (maybe fixed) : 0
Dropped bytes error (maybe fixed) : 0
Duplicated bytes error (maybe fixed) : 0
Inconsistency in error sectors : 0
Track 06
Filename : /Users/Home/Desktop/Eddie Hinton - 2005 - A Mighty Field Of Vision FLAC/06 - Heavy Makes You Happy (Sha-Na-Boom-Boom).flac
Pre-gap length : 00:02:29
Track gain : -7.35 dB
Peak : 1.000000
CRC32 hash (test run) : 7567C965
CRC32 hash : 7567C965
CRC32 hash (skip zero) : AE60089B
AccurateRip signature : C630015D
->Track not present in AccurateRip database.
Statistics
Read error : 0
Skipped (treated as error) : 0
Edge jitter error (maybe fixed) : 0
Atom jitter error (maybe fixed) : 0
Drift error (maybe fixed) : 0
Dropped bytes error (maybe fixed) : 0
Duplicated bytes error (maybe fixed) : 0
Inconsistency in error sectors : 0
Track 07
Filename : /Users/Home/Desktop/Eddie Hinton - 2005 - A Mighty Field Of Vision FLAC/07 - Got Down Last Saturday Night.flac
Pre-gap length : 00:02:28
Track gain : -2.49 dB
Peak : 1.000000
CRC32 hash (test run) : CFFFE78E
CRC32 hash : CFFFE78E
CRC32 hash (skip zero) : 2A6AB058
AccurateRip signature : 2086FAA8
->Track not present in AccurateRip database.
Statistics
Read error : 0
Skipped (treated as error) : 0
Edge jitter error (maybe fixed) : 0
Atom jitter error (maybe fixed) : 0
Drift error (maybe fixed) : 0
Dropped bytes error (maybe fixed) : 0
Duplicated bytes error (maybe fixed) : 0
Inconsistency in error sectors : 0
Track 08
Filename : /Users/Home/Desktop/Eddie Hinton - 2005 - A Mighty Field Of Vision FLAC/08 - My Searching Is Over.flac
Pre-gap length : 00:02:59
Track gain : -6.50 dB
Peak : 1.000000
CRC32 hash (test run) : FAED0EF8
CRC32 hash : FAED0EF8
CRC32 hash (skip zero) : 8F5BD10A
AccurateRip signature : E77879F8
->Track not present in AccurateRip database.
Statistics
Read error : 0
Skipped (treated as error) : 0
Edge jitter error (maybe fixed) : 0
Atom jitter error (maybe fixed) : 0
Drift error (maybe fixed) : 0
Dropped bytes error (maybe fixed) : 0
Duplicated bytes error (maybe fixed) : 0
Inconsistency in error sectors : 0
Track 09
Filename : /Users/Home/Desktop/Eddie Hinton - 2005 - A Mighty Field Of Vision FLAC/09 - Sad and Lonesome.flac
Pre-gap length : 00:03:04
Track gain : -5.31 dB
Peak : 1.000000
CRC32 hash (test run) : 46FD1B21
CRC32 hash : 46FD1B21
CRC32 hash (skip zero) : 3A23ABE9
AccurateRip signature : A273257C
->Track not present in AccurateRip database.
Statistics
Read error : 0
Skipped (treated as error) : 0
Edge jitter error (maybe fixed) : 0
Atom jitter error (maybe fixed) : 0
Drift error (maybe fixed) : 0
Dropped bytes error (maybe fixed) : 0
Duplicated bytes error (maybe fixed) : 0
Inconsistency in error sectors : 0
Track 10
Filename : /Users/Home/Desktop/Eddie Hinton - 2005 - A Mighty Field Of Vision FLAC/10 - I Want a Woman.flac
Pre-gap length : 00:02:35
Track gain : -3.75 dB
Peak : 1.000000
CRC32 hash (test run) : E4790DC1
CRC32 hash : E4790DC1
CRC32 hash (skip zero) : EBA89C6F
AccurateRip signature : 7DD09EA1
->Track not present in AccurateRip database.
Statistics
Read error : 0
Skipped (treated as error) : 0
Edge jitter error (maybe fixed) : 0
Atom jitter error (maybe fixed) : 0
Drift error (maybe fixed) : 0
Dropped bytes error (maybe fixed) : 0
Duplicated bytes error (maybe fixed) : 0
Inconsistency in error sectors : 0
Track 11
Filename : /Users/Home/Desktop/Eddie Hinton - 2005 - A Mighty Field Of Vision FLAC/11 - Here I Am.flac
Pre-gap length : 00:02:31
Track gain : -7.38 dB
Peak : 1.000000
CRC32 hash (test run) : 7B13B454
CRC32 hash : 7B13B454
CRC32 hash (skip zero) : 166D85D8
AccurateRip signature : 01B30A50
->Track not present in AccurateRip database.
Statistics
Read error : 0
Skipped (treated as error) : 0
Edge jitter error (maybe fixed) : 0
Atom jitter error (maybe fixed) : 0
Drift error (maybe fixed) : 0
Dropped bytes error (maybe fixed) : 0
Duplicated bytes error (maybe fixed) : 0
Inconsistency in error sectors : 0
Track 12
Filename : /Users/Home/Desktop/Eddie Hinton - 2005 - A Mighty Field Of Vision FLAC/12 - Sad Song.flac
Pre-gap length : 00:02:68
Track gain : -9.43 dB
Peak : 0.984436
CRC32 hash (test run) : 91D21C1F
CRC32 hash : 91D21C1F
CRC32 hash (skip zero) : 2C3812AB
AccurateRip signature : C9741EC3
->Track not present in AccurateRip database.
Statistics
Read error : 0
Skipped (treated as error) : 0
Edge jitter error (maybe fixed) : 0
Atom jitter error (maybe fixed) : 0
Drift error (maybe fixed) : 0
Dropped bytes error (maybe fixed) : 0
Duplicated bytes error (maybe fixed) : 0
Inconsistency in error sectors : 0
Track 13
Filename : /Users/Home/Desktop/Eddie Hinton - 2005 - A Mighty Field Of Vision FLAC/13 - Three Hundred Pounds of Hongry.flac
Pre-gap length : 00:02:69
Track gain : -8.96 dB
Peak : 0.999847
CRC32 hash (test run) : C71304C4
CRC32 hash : C71304C4
CRC32 hash (skip zero) : 4C519BF1
AccurateRip signature : 2A38132C
->Track not present in AccurateRip database.
Statistics
Read error : 0
Skipped (treated as error) : 0
Edge jitter error (maybe fixed) : 0
Atom jitter error (maybe fixed) : 0
Drift error (maybe fixed) : 0
Dropped bytes error (maybe fixed) : 0
Duplicated bytes error (maybe fixed) : 0
Inconsistency in error sectors : 0
Track 14
Filename : /Users/Home/Desktop/Eddie Hinton - 2005 - A Mighty Field Of Vision FLAC/14 - What Would I Do Without You.flac
Pre-gap length : 00:02:61
Track gain : -8.94 dB
Peak : 1.000000
CRC32 hash (test run) : 4C9F811E
CRC32 hash : 4C9F811E
CRC32 hash (skip zero) : A908038E
AccurateRip signature : 18B84D6F
->Track not present in AccurateRip database.
Statistics
Read error : 0
Skipped (treated as error) : 0
Edge jitter error (maybe fixed) : 0
Atom jitter error (maybe fixed) : 0
Drift error (maybe fixed) : 0
Dropped bytes error (maybe fixed) : 0
Duplicated bytes error (maybe fixed) : 0
Inconsistency in error sectors : 0
Track 15
Filename : /Users/Home/Desktop/Eddie Hinton - 2005 - A Mighty Field Of Vision FLAC/15 - Hymn for Lonely Hearts.flac
Pre-gap length : 00:02:66
Track gain : -5.77 dB
Peak : 1.000000
CRC32 hash (test run) : 494F99BE
CRC32 hash : 494F99BE
CRC32 hash (skip zero) : B753B2F0
AccurateRip signature : B7E9F656
->Track not present in AccurateRip database.
Statistics
Read error : 0
Skipped (treated as error) : 0
Edge jitter error (maybe fixed) : 0
Atom jitter error (maybe fixed) : 0
Drift error (maybe fixed) : 0
Dropped bytes error (maybe fixed) : 0
Duplicated bytes error (maybe fixed) : 0
Inconsistency in error sectors : 0
Track 16
Filename : /Users/Home/Desktop/Eddie Hinton - 2005 - A Mighty Field Of Vision FLAC/16 - Something Heavy.flac
Pre-gap length : 00:02:52
Track gain : -4.96 dB
Peak : 0.954865
CRC32 hash (test run) : 45227BF2
CRC32 hash : 45227BF2
CRC32 hash (skip zero) : 6AFE7E50
AccurateRip signature : 0FA91F1D
->Track not present in AccurateRip database.
Statistics
Read error : 0
Skipped (treated as error) : 0
Edge jitter error (maybe fixed) : 0
Atom jitter error (maybe fixed) : 0
Drift error (maybe fixed) : 0
Dropped bytes error (maybe fixed) : 0
Duplicated bytes error (maybe fixed) : 0
Inconsistency in error sectors : 0
Track 17
Filename : /Users/Home/Desktop/Eddie Hinton - 2005 - A Mighty Field Of Vision FLAC/17 - Everybody Needs Love.flac
Pre-gap length : 00:02:55
Track gain : -6.24 dB
Peak : 1.000000
CRC32 hash (test run) : DF847C42
CRC32 hash : DF847C42
CRC32 hash (skip zero) : 77BEC967
AccurateRip signature : 8EDDD42C
->Track not present in AccurateRip database.
Statistics
Read error : 0
Skipped (treated as error) : 0
Edge jitter error (maybe fixed) : 0
Atom jitter error (maybe fixed) : 0
Drift error (maybe fixed) : 0
Dropped bytes error (maybe fixed) : 0
Duplicated bytes error (maybe fixed) : 0
Inconsistency in error sectors : 0
Track 18
Filename : /Users/Home/Desktop/Eddie Hinton - 2005 - A Mighty Field Of Vision FLAC/18 - Cry and Moan.flac
Pre-gap length : 00:02:73
Track gain : -4.58 dB
Peak : 1.000000
CRC32 hash (test run) : CC416D35
CRC32 hash : CC416D35
CRC32 hash (skip zero) : 4A91A677
AccurateRip signature : DE16EC7E
->Track not present in AccurateRip database.
Statistics
Read error : 0
Skipped (treated as error) : 0
Edge jitter error (maybe fixed) : 0
Atom jitter error (maybe fixed) : 0
Drift error (maybe fixed) : 0
Dropped bytes error (maybe fixed) : 0
Duplicated bytes error (maybe fixed) : 0
Inconsistency in error sectors : 0
Track 19
Filename : /Users/Home/Desktop/Eddie Hinton - 2005 - A Mighty Field Of Vision FLAC/19 - Bottom of the Well.flac
Pre-gap length : 00:02:37
Track gain : -4.03 dB
Peak : 1.000000
CRC32 hash (test run) : A108ABEA
CRC32 hash : A108ABEA
CRC32 hash (skip zero) : A107BA7F
AccurateRip signature : 52D5500D
->Track not present in AccurateRip database.
Statistics
Read error : 0
Skipped (treated as error) : 0
Edge jitter error (maybe fixed) : 0
Atom jitter error (maybe fixed) : 0
Drift error (maybe fixed) : 0
Dropped bytes error (maybe fixed) : 0
Duplicated bytes error (maybe fixed) : 0
Inconsistency in error sectors : 0
Track 20
Filename : /Users/Home/Desktop/Eddie Hinton - 2005 - A Mighty Field Of Vision FLAC/20 - Rock of My Soul.flac
Pre-gap length : 00:02:65
Track gain : -2.74 dB
Peak : 1.000000
CRC32 hash (test run) : 4369EBCF
CRC32 hash : 4369EBCF
CRC32 hash (skip zero) : D15D7977
AccurateRip signature : C3B81AA4
->Track not present in AccurateRip database.
Statistics
Read error : 0
Skipped (treated as error) : 0
Edge jitter error (maybe fixed) : 0
Atom jitter error (maybe fixed) : 0
Drift error (maybe fixed) : 0
Dropped bytes error (maybe fixed) : 0
Duplicated bytes error (maybe fixed) : 0
Inconsistency in error sectors : 0
Track 21
Filename : /Users/Home/Desktop/Eddie Hinton - 2005 - A Mighty Field Of Vision FLAC/21 - Very Blue Highway.flac
Pre-gap length : 00:02:49
Track gain : -3.31 dB
Peak : 1.000000
CRC32 hash (test run) : A613BC02
CRC32 hash : A613BC02
CRC32 hash (skip zero) : 80ED38B0
AccurateRip signature : 6B69B051
->Track not present in AccurateRip database.
Statistics
Read error : 0
Skipped (treated as error) : 0
Edge jitter error (maybe fixed) : 0
Atom jitter error (maybe fixed) : 0
Drift error (maybe fixed) : 0
Dropped bytes error (maybe fixed) : 0
Duplicated bytes error (maybe fixed) : 0
Inconsistency in error sectors : 0
No errors occurred
End of status report
 
Содержание индексной карты (.CUE)
TITLE "The Anthology 1969-1993: A Mighty Field of Vision"
PERFORMER "Eddie Hinton"
REM GENRE "Soul"
REM DATE "2005"
REM DISCID 23117B15
FILE "01 - I Got the Feeling.wav" WAVE
TRACK 01 AUDIO
TITLE "I Got the Feeling"
INDEX 01 00:00:00
TRACK 02 AUDIO
TITLE "You Got Me Singing"
INDEX 00 05:19:34
FILE "02 - You Got Me Singing.wav" WAVE
INDEX 01 00:00:00
TRACK 03 AUDIO
TITLE "Concept World"
INDEX 00 03:28:19
FILE "03 - Concept World.wav" WAVE
INDEX 01 00:00:00
TRACK 04 AUDIO
TITLE "Shout Bamalama"
INDEX 00 04:56:56
FILE "04 - Shout Bamalama.wav" WAVE
INDEX 01 00:00:00
TRACK 05 AUDIO
TITLE "Just Like the Fool That I Was"
INDEX 00 03:43:45
FILE "05 - Just Like the Fool That I Was.wav" WAVE
INDEX 01 00:00:00
TRACK 06 AUDIO
TITLE "Heavy Makes You Happy (Sha-Na-Boom-Boom)"
INDEX 00 02:54:11
FILE "06 - Heavy Makes You Happy (Sha-Na-Boom-Boom).wav" WAVE
INDEX 01 00:00:00
TRACK 07 AUDIO
TITLE "Got Down Last Saturday Night"
INDEX 00 04:47:72
FILE "07 - Got Down Last Saturday Night.wav" WAVE
INDEX 01 00:00:00
TRACK 08 AUDIO
TITLE "My Searching Is Over"
INDEX 00 02:42:21
FILE "08 - My Searching Is Over.wav" WAVE
INDEX 01 00:00:00
TRACK 09 AUDIO
TITLE "Sad and Lonesome"
INDEX 00 02:12:72
FILE "09 - Sad and Lonesome.wav" WAVE
INDEX 01 00:00:00
TRACK 10 AUDIO
TITLE "I Want a Woman"
INDEX 00 03:19:38
FILE "10 - I Want a Woman.wav" WAVE
INDEX 01 00:00:00
TRACK 11 AUDIO
TITLE "Here I Am"
INDEX 00 03:07:44
FILE "11 - Here I Am.wav" WAVE
INDEX 01 00:00:00
TRACK 12 AUDIO
TITLE "Sad Song"
INDEX 00 03:35:04
FILE "12 - Sad Song.wav" WAVE
INDEX 01 00:00:00
TRACK 13 AUDIO
TITLE "Three Hundred Pounds of Hongry"
INDEX 00 03:55:08
FILE "13 - Three Hundred Pounds of Hongry.wav" WAVE
INDEX 01 00:00:00
TRACK 14 AUDIO
TITLE "What Would I Do Without You"
INDEX 00 02:34:31
FILE "14 - What Would I Do Without You.wav" WAVE
INDEX 01 00:00:00
TRACK 15 AUDIO
TITLE "Hymn for Lonely Hearts"
INDEX 00 02:50:55
FILE "15 - Hymn for Lonely Hearts.wav" WAVE
INDEX 01 00:00:00
TRACK 16 AUDIO
TITLE "Something Heavy"
INDEX 00 04:09:48
FILE "16 - Something Heavy.wav" WAVE
INDEX 01 00:00:00
TRACK 17 AUDIO
TITLE "Everybody Needs Love"
INDEX 00 03:32:13
FILE "17 - Everybody Needs Love.wav" WAVE
INDEX 01 00:00:00
TRACK 18 AUDIO
TITLE "Cry and Moan"
INDEX 00 03:31:23
FILE "18 - Cry and Moan.wav" WAVE
INDEX 01 00:00:00
TRACK 19 AUDIO
TITLE "Bottom of the Well"
INDEX 00 03:49:60
FILE "19 - Bottom of the Well.wav" WAVE
INDEX 01 00:00:00
TRACK 20 AUDIO
TITLE "Rock of My Soul"
INDEX 00 02:43:26
FILE "20 - Rock of My Soul.wav" WAVE
INDEX 01 00:00:00
TRACK 21 AUDIO
TITLE "Very Blue Highway"
INDEX 00 03:33:22
FILE "21 - Very Blue Highway.wav" WAVE
INDEX 01 00:00:00
 
Лог проверки качества
AUDIOCHECKER v2.0 beta (build 457) - by Dester - opdester@freemail.hu
~~~~~~~~~~~~~~~~~~~~~~~~~~~~~~~~~~
-=== DO NOT EDIT THIS FILE! ===-
Path: ...\Eddie Hinton - A Mighty Field Of Vision - The Anthology 1969-1993 [2005]
01 -=- 01 - I Got the Feeling.flac -=- CDDA (99%)
02 -=- 02 - You Got Me Singing.flac -=- CDDA (100%)
03 -=- 03 - Concept World.flac -=- CDDA (100%)
04 -=- 04 - Shout Bamalama.flac -=- CDDA (99%)
05 -=- 05 - Just Like the Fool That I Was.flac -=- CDDA (100%)
06 -=- 06 - Heavy Makes You Happy (Sha-Na-Boom-Boom).flac -=- CDDA (100%)
07 -=- 07 - Got Down Last Saturday Night.flac -=- CDDA (100%)
08 -=- 08 - My Searching Is Over.flac -=- CDDA (100%)
09 -=- 09 - Sad and Lonesome.flac -=- CDDA (100%)
10 -=- 10 - I Want a Woman.flac -=- CDDA (100%)
11 -=- 11 - Here I Am.flac -=- CDDA (100%)
12 -=- 12 - Sad Song.flac -=- CDDA (100%)
13 -=- 13 - Three Hundred Pounds of Hongry.flac -=- CDDA (100%)
14 -=- 14 - What Would I Do Without You.flac -=- CDDA (99%)
15 -=- 15 - Hymn for Lonely Hearts.flac -=- MPEG (95%)
16 -=- 16 - Something Heavy.flac -=- CDDA (100%)
17 -=- 17 - Everybody Needs Love.flac -=- CDDA (100%)
18 -=- 18 - Cry and Moan.flac -=- CDDA (100%)
19 -=- 19 - Bottom of the Well.flac -=- CDDA (99%)
20 -=- 20 - Rock of My Soul.flac -=- CDDA (100%)
21 -=- 21 - Very Blue Highway.flac -=- CDDA (100%)
Summary 95,29% CDDA
196904100
 
Скриншот спектра частот
Доп. информация: Хорошая подборка песен исполнителя. Мне лично очень понравилась песня 07. Got Down Last Saturday Night.
 
Об исполнителе (группе)
Приватный:
Нет (DHT включён)
Размер:
446.13 Мб (467,799,416 байт) » файлов: 27
Участники:
0 раздают, 0 качают (0 участников всего)
Внешние участники:
2 раздают, 1 качают (3 участников всего) [ Обновить ]
Есть вопросы - пишите личное сообщение пользователю M0p94ok.
04:56
57
Нет комментариев. Ваш будет первым!