Поиск

(Funk, Soul) [CD] Isaac Hayes - U-Turn (1986) - 2011, FLAC (tracks+.cue), lossless

(Funk, Soul) [CD] Isaac Hayes - U-Turn (1986) - 2011, FLAC (tracks+.cue), lossless
Треклист:
Isaac Hayes - U-Turn (1986) Жанр: Funk, Soul
Носитель: CD
Год издания: 2011
Издатель (лейбл): Expansion Records
Номер по каталогу: EXCDM28
Аудиокодек: FLAC (*.flac)
Тип рипа: tracks+.cue
Битрейт аудио: lossless
Продолжительность: 44:19
Rip by JET 1
Наличие сканов в содержимом раздачи: да
Треклист:
01. If You Want My Lovein', Do Me Right (4:35)
02. Flash Backs (4:28)
03. You Turn Me On (4:47)
04. Ike's Rap VIII (3:19)
05. Hey Girl (5:46)
06. Doesn't Rain In London (5:30)
07. Can't Take My Eyes Off You (6:18)
08. Thing For You (5:29)
09. Thank Gof For Love (4:08)
 
Лог создания рипа
Exact Audio Copy V1.0 beta 3 from 29. August 2011
EAC extraction logfile from 20. March 2015, 16:16
Isaac Hayes / U-turn
Used drive : GENERIC CDRCB05 Adapter: 4 ID: 0
Read mode : Secure
Utilize accurate stream : Yes
Defeat audio cache : Yes
Make use of C2 pointers : No
Read offset correction : 102
Overread into Lead-In and Lead-Out : No
Fill up missing offset samples with silence : Yes
Delete leading and trailing silent blocks : No
Null samples used in CRC calculations : Yes
Used interface : Native Win32 interface for Win NT & 2000
Gap handling : Appended to previous track
Used output format : User Defined Encoder
Selected bitrate : 1024 kBit/s
Quality : High
Add ID3 tag : No
Command line compressor : C:\Program Files\FLAC\flac.exe
Additional command line options : -8 -V -T "ARTIST=%artist%" -T "TITLE=%title%" -T "ALBUM=%albumtitle%" -T "DATE=%year%" -T "TRACKNUMBER=%tracknr%" -T "GENRE=%genre%" -T "PERFORMER=%albuminterpret%" -T "COMPOSER=%composer%" %haslyrics%--tag-from-file=LYRICS="%lyricsfile%"%haslyrics% -T "ALBUMARTIST=%albumartist%" -T "DISCNUMBER=%cdnumber%" -T "TOTALDISCS=%totalcds%" -T "TOTALTRACKS=%numtracks%" -T "COMMENT=%comment%" %source% -o %dest%
TOC of the extracted CD
Track | Start | Length | Start sector | End sector
---------------------------------------------------------
1 | 0:00.00 | 4:35.08 | 0 | 20632
2 | 4:35.08 | 4:28.26 | 20633 | 40758
3 | 9:03.34 | 4:46.54 | 40759 | 62262
4 | 13:50.13 | 3:18.61 | 62263 | 77173
5 | 17:08.74 | 5:45.68 | 77174 | 103116
6 | 22:54.67 | 5:30.02 | 103117 | 127868
7 | 28:24.69 | 6:17.47 | 127869 | 156190
8 | 34:42.41 | 5:28.48 | 156191 | 180838
9 | 40:11.14 | 4:07.62 | 180839 | 199425
Track 1
Filename I:\0\Isaac Hayes - U-Turn (1986) [2011 Expansion]\01 - If You Want My Lovein', Do Me Right.wav
Pre-gap length 0:00:02.00
Peak level 100.0 %
Extraction speed 1.4 X
Track quality 100.0 %
Test CRC 03F30191
Copy CRC 03F30191
Accurately ripped (confidence 1) [4DE09F30] (AR v2)
Copy OK
Track 2
Filename I:\0\Isaac Hayes - U-Turn (1986) [2011 Expansion]\02 - Flash Backs.wav
Pre-gap length 0:00:03.09
Peak level 100.0 %
Extraction speed 1.6 X
Track quality 100.0 %
Test CRC 709103E1
Copy CRC 709103E1
Accurately ripped (confidence 1) [09FCFA1A] (AR v2)
Copy OK
Track 3
Filename I:\0\Isaac Hayes - U-Turn (1986) [2011 Expansion]\03 - You Turn Me On.wav
Pre-gap length 0:00:01.34
Peak level 100.0 %
Extraction speed 1.8 X
Track quality 100.0 %
Test CRC 197D092C
Copy CRC 197D092C
Accurately ripped (confidence 1) [74BA1639] (AR v2)
Copy OK
Track 4
Filename I:\0\Isaac Hayes - U-Turn (1986) [2011 Expansion]\04 - Ike's Rap VIII.wav
Pre-gap length 0:00:02.59
Peak level 100.0 %
Extraction speed 1.8 X
Track quality 100.0 %
Test CRC 2F8F1CAD
Copy CRC 2F8F1CAD
Accurately ripped (confidence 1) [126507C0] (AR v2)
Copy OK
Track 5
Filename I:\0\Isaac Hayes - U-Turn (1986) [2011 Expansion]\05 - Hey Girl.wav
Peak level 100.0 %
Extraction speed 1.9 X
Track quality 99.9 %
Test CRC 5905688D
Copy CRC 5905688D
Accurately ripped (confidence 1) [C4DF9720] (AR v2)
Copy OK
Track 6
Filename I:\0\Isaac Hayes - U-Turn (1986) [2011 Expansion]\06 - Doesn't Rain In London.wav
Peak level 100.0 %
Extraction speed 2.1 X
Track quality 99.9 %
Test CRC D2C6F37D
Copy CRC D2C6F37D
Accurately ripped (confidence 1) [8F5CB328] (AR v2)
Copy OK
Track 7
Filename I:\0\Isaac Hayes - U-Turn (1986) [2011 Expansion]\07 - Can't Take My Eyes Off You.wav
Pre-gap length 0:00:00.13
Peak level 100.0 %
Extraction speed 2.5 X
Track quality 100.0 %
Test CRC BBC9C36C
Copy CRC BBC9C36C
Accurately ripped (confidence 1) [AABD56EC] (AR v2)
Copy OK
Track 8
Filename I:\0\Isaac Hayes - U-Turn (1986) [2011 Expansion]\08 - Thing For You.wav
Pre-gap length 0:00:00.08
Peak level 100.0 %
Extraction speed 2.3 X
Track quality 99.9 %
Test CRC 756F1A6B
Copy CRC 756F1A6B
Accurately ripped (confidence 1) [85046CE3] (AR v2)
Copy OK
Track 9
Filename I:\0\Isaac Hayes - U-Turn (1986) [2011 Expansion]\09 - Thank Gof for Love.wav
Pre-gap length 0:00:00.20
Peak level 100.0 %
Extraction speed 2.6 X
Track quality 100.0 %
Test CRC 774121A7
Copy CRC 774121A7
Accurately ripped (confidence 1) [626BEAB5] (AR v2)
Copy OK
All tracks accurately ripped
No errors occurred
End of status report
==== Log checksum 85111B5AC22F4F0CE4915CA46A92CA0BC5087C309E05405DC0093D805ECFF2B4 ====
 
Содержание индексной карты (.CUE)
REM GENRE Soul
REM DATE 1987
REM DISCID 680A6309
REM COMMENT "ExactAudioCopy v1.0b3"
PERFORMER "Isaac Hayes"
TITLE "U-Turn"
FILE "01 - If You Want My Lovein', Do Me Right.wav" WAVE
TRACK 01 AUDIO
TITLE "If You Want My Lovein', Do Me Right"
PERFORMER "Isaac Hayes"
INDEX 01 00:00:00
TRACK 02 AUDIO
TITLE "Flash Backs"
PERFORMER "Isaac Hayes"
INDEX 00 04:31:74
FILE "02 - Flash Backs.wav" WAVE
INDEX 01 00:00:00
TRACK 03 AUDIO
TITLE "You Turn Me On"
PERFORMER "Isaac Hayes"
INDEX 00 04:26:67
FILE "03 - You Turn Me On.wav" WAVE
INDEX 01 00:00:00
TRACK 04 AUDIO
TITLE "Ike's Rap VIII"
PERFORMER "Isaac Hayes"
INDEX 00 04:43:70
FILE "04 - Ike's Rap VIII.wav" WAVE
INDEX 01 00:00:00
FILE "05 - Hey Girl.wav" WAVE
TRACK 05 AUDIO
TITLE "Hey Girl"
PERFORMER "Isaac Hayes"
INDEX 01 00:00:00
FILE "06 - Doesn't Rain In London.wav" WAVE
TRACK 06 AUDIO
TITLE "Doesn't Rain In London"
PERFORMER "Isaac Hayes"
INDEX 01 00:00:00
TRACK 07 AUDIO
TITLE "Can't Take My Eyes Off You"
PERFORMER "Isaac Hayes"
INDEX 00 05:29:64
FILE "07 - Can't Take My Eyes Off You.wav" WAVE
INDEX 01 00:00:00
TRACK 08 AUDIO
TITLE "Thing For You"
PERFORMER "Isaac Hayes"
INDEX 00 06:17:39
FILE "08 - Thing For You.wav" WAVE
INDEX 01 00:00:00
TRACK 09 AUDIO
TITLE "Thank Gof For Love"
PERFORMER "Isaac Hayes"
INDEX 00 05:28:28
FILE "09 - Thank Gof For Love.wav" WAVE
INDEX 01 00:00:00
 
Об альбоме (сборнике)
In 1986, Isaac Hayes signed with CBS Records and many hoped he would make a big comeback. Despite containing some great songs, superb production and strong and passionate vocals from Isaac this CD was very poorly promoted and it failed to get the radio airplay it deserved. Standout numbers featured include "If You Want My Lovin', Do Me Right", "It Never Rains In London", "Thank God For Love" and Isaac's crushingly soulful remake of "Hey Girl". "U-Turn" may well be one of Isaac Hayes' most obscure and underrated albums but it's well worth getting if you can find it.
Приватный:
Нет (DHT включён)
Размер:
380.90 Мб (399,400,256 байт) » файлов: 20
Участники:
0 раздают, 0 качают (0 участников всего)
Внешние участники:
2 раздают, 1 качают (3 участников всего) [ Обновить ]
Есть вопросы - пишите личное сообщение пользователю M0p94ok.
04:57
89
Нет комментариев. Ваш будет первым!