Поиск

(Rhythm & Blues, Soul) Otis Redding - The Definitive Collection (The Dock Of The Bay) - 1987, FLAC (tracks+.cue), lossless

(Rhythm & Blues, Soul) Otis Redding - The Definitive Collection (The Dock Of The Bay) - 1987, FLAC (tracks+.cue), lossless
Треклист:
Otis Redding - The Definitive Collection (The Dock Of The Bay)
Жанр: Rhythm & Blues, Soul
Год выпуска диска: 1987
Производитель диска: Germany, WEA international inc.
Аудио кодек: FLAC
Тип рипа: tracks+.cue
Битрейт аудио: lossless
Продолжительность: 57:40 min.
Трэклист:
01. Respect 02:09
02. Mr. Pitiful 02:40
03. Love Man 02:19
04. (I Can't Get No) Satisfaction 02:47
05. Security 02:35
06. I Can't Turn You Loose 02:39
07. Shake 02:41
08. Hard to handle 02:20
09. Otis Redding & Carla Thomas / Tramp 02:57
10. Fa-Fa-Fa-Fa-Fa (Sad Song) 02:42
11. My Lover's Prayer 03:08
12. These Arms Of Mine 02:34
13. That's How Strong My Love Is 02:28
14. Cigarettes And Coffee 04:01
15. My Girl 02:57
16. A Change Is Gonna Come 04:19
17. I've Been Loving You Too Long 03:15
18. Try A Little Tenderness 03:51
19. Pain In My Heart 02:24
20. (Sittin' On) The Dock Of The Bay 02:41
Рип мой.
Доп. информация:
 
скрытый текст
Exact Audio Copy V0.99 prebeta 5 from 4. May 2009
Отчёт EAC об извлечении, выполненном 6. января 2010, 15:21
Otis Redding / The Definitive Collection (The Dock Of The Bay)
Дисковод: Optiarc DVD RW AD-7243S Adapter: 2 ID: 1
Режим чтения : Достоверность
Использование точного потока : Да
Отключение кэша аудио : Да
Использование указателей C2 : Нет
Коррекция смещения при чтении : 48
Способность читать области Lead-in и Lead-out : Нет
Заполнение пропущенных сэмплов тишиной : Да
Удаление блоков с тишиной в начале и конце : Нет
При вычислениях CRC использовались нулевые сэмплы : Да
Интерфейс : Встроенный Win32-интерфейс для Win NT/2000
Обработка зазоров : Добавлено к предыдущему треку
Выходной формат : Пользовательский кодировщик
Выбранный битрейт : 1024 kBit/s
Качество : Высокий
Добавление ID3-тэга : Нет
Утилита сжатия : C:\Program Files\Exact Audio Copy\FLAC\FLAC.EXE
Дополнительные параметры : -6 -V -T "ARTIST=%a" -T "TITLE=%t" -T "ALBUM=%g" -T "DATE=%y" -T "TRACKNUMBER=%n" -T "GENRE=%m" -T "COMMENT=%e" %s -o %d
TOC извлечённого CD
Трек | Старт | Длительность | Начальный сектор | Конечный сектор
---------------------------------------------------------------------
1 | 0:00.00 | 2:09.55 | 0 | 9729
2 | 2:09.55 | 2:40.35 | 9730 | 21764
3 | 4:50.15 | 2:19.40 | 21765 | 32229
4 | 7:09.55 | 2:47.72 | 32230 | 44826
5 | 9:57.52 | 2:35.33 | 44827 | 56484
6 | 12:33.10 | 2:39.47 | 56485 | 68456
7 | 15:12.57 | 2:41.35 | 68457 | 80566
8 | 17:54.17 | 2:20.65 | 80567 | 91131
9 | 20:15.07 | 2:57.40 | 91132 | 104446
10 | 23:12.47 | 2:42.60 | 104447 | 116656
11 | 25:55.32 | 3:08.68 | 116657 | 130824
12 | 29:04.25 | 2:34.32 | 130825 | 142406
13 | 31:38.57 | 2:28.68 | 142407 | 153574
14 | 34:07.50 | 4:01.72 | 153575 | 171721
15 | 38:09.47 | 2:57.23 | 171722 | 185019
16 | 41:06.70 | 4:19.70 | 185020 | 204514
17 | 45:26.65 | 3:15.62 | 204515 | 219201
18 | 48:42.52 | 3:51.35 | 219202 | 236561
19 | 52:34.12 | 2:24.43 | 236562 | 247404
20 | 54:58.55 | 2:41.42 | 247405 | 259521
Трек 1
Имя файла C:\Documents and Settings\Krasnov\Мои документы\Downloads\01 - Respect.wav
Длина предзазора 0:00:02.00
Пиковый уровень 99.4 %
Качество трека 100.0 %
CRC теста 501AE7E8
CRC копии 501AE7E8
Точное извлечение (достоверность 42) [4CEEB537]
Копирование... OK
Трек 2
Имя файла C:\Documents and Settings\Krasnov\Мои документы\Downloads\02 - Mr. Pitiful.wav
Длина предзазора 0:00:02.43
Пиковый уровень 100.0 %
Качество трека 100.0 %
CRC теста 9B239C0B
CRC копии 9B239C0B
Точное извлечение (достоверность 44) [34930CC3]
Копирование... OK
Трек 3
Имя файла C:\Documents and Settings\Krasnov\Мои документы\Downloads\03 - Love Man.wav
Длина предзазора 0:00:02.18
Пиковый уровень 100.0 %
Качество трека 100.0 %
CRC теста 9F4CCF37
CRC копии 9F4CCF37
Точное извлечение (достоверность 43) [F027EDEB]
Копирование... OK
Трек 4
Имя файла C:\Documents and Settings\Krasnov\Мои документы\Downloads\04 - (I Can't Get No) Satisfaction.wav
Длина предзазора 0:00:03.35
Пиковый уровень 95.2 %
Качество трека 100.0 %
CRC теста 71065A49
CRC копии 71065A49
Точное извлечение (достоверность 43) [FD63B187]
Копирование... OK
Трек 5
Имя файла C:\Documents and Settings\Krasnov\Мои документы\Downloads\05 - Security.wav
Длина предзазора 0:00:01.70
Пиковый уровень 75.0 %
Качество трека 100.0 %
CRC теста DA232367
CRC копии DA232367
Точное извлечение (достоверность 42) [5CE4B34E]
Копирование... OK
Трек 6
Имя файла C:\Documents and Settings\Krasnov\Мои документы\Downloads\06 - I Can't Turn You Loose.wav
Длина предзазора 0:00:02.23
Пиковый уровень 97.3 %
Качество трека 100.0 %
CRC теста 6D41B577
CRC копии 6D41B577
Точное извлечение (достоверность 44) [6E439AB9]
Копирование... OK
Трек 7
Имя файла C:\Documents and Settings\Krasnov\Мои документы\Downloads\07 - Shake.wav
Длина предзазора 0:00:01.22
Пиковый уровень 100.0 %
Качество трека 100.0 %
CRC теста 5C5DF166
CRC копии 5C5DF166
Точное извлечение (достоверность 42) [688686D9]
Копирование... OK
Трек 8
Имя файла C:\Documents and Settings\Krasnov\Мои документы\Downloads\08 - Hard to handle.wav
Длина предзазора 0:00:02.20
Пиковый уровень 74.7 %
Качество трека 100.0 %
CRC теста DDDBF1AD
CRC копии DDDBF1AD
Точное извлечение (достоверность 42) [441574BF]
Копирование... OK
Трек 9
Имя файла C:\Documents and Settings\Krasnov\Мои документы\Downloads\09 - Otis Redding & Carla Thomas , Tramp.wav
Длина предзазора 0:00:03.42
Пиковый уровень 100.0 %
Качество трека 100.0 %
CRC теста 37B4740C
CRC копии 37B4740C
Точное извлечение (достоверность 43) [56B596B7]
Копирование... OK
Трек 10
Имя файла C:\Documents and Settings\Krasnov\Мои документы\Downloads\10 - Fa-Fa-Fa-Fa-Fa (Sad Song).wav
Длина предзазора 0:00:00.65
Пиковый уровень 98.8 %
Качество трека 100.0 %
CRC теста F18DB60C
CRC копии F18DB60C
Точное извлечение (достоверность 44) [87C50980]
Копирование... OK
Трек 11
Имя файла C:\Documents and Settings\Krasnov\Мои документы\Downloads\11 - My Lover's Prayer.wav
Длина предзазора 0:00:02.50
Пиковый уровень 67.6 %
Качество трека 99.9 %
CRC теста ACD0B97C
CRC копии ACD0B97C
Точное извлечение (достоверность 43) [09A981C6]
Копирование... OK
Трек 12
Имя файла C:\Documents and Settings\Krasnov\Мои документы\Downloads\12 - These Arms Of Mine.wav
Длина предзазора 0:00:03.55
Пиковый уровень 64.5 %
Качество трека 100.0 %
CRC теста 7A4030C2
CRC копии 7A4030C2
Точное извлечение (достоверность 44) [28EFC000]
Копирование... OK
Трек 13
Имя файла C:\Documents and Settings\Krasnov\Мои документы\Downloads\13 - That's How Strong My Love Is.wav
Длина предзазора 0:00:03.47
Пиковый уровень 69.9 %
Качество трека 100.0 %
CRC теста D4ABE335
CRC копии D4ABE335
Точное извлечение (достоверность 44) [E6BF0C7A]
Копирование... OK
Трек 14
Имя файла C:\Documents and Settings\Krasnov\Мои документы\Downloads\14 - Cigarettes And Coffee.wav
Длина предзазора 0:00:02.53
Пиковый уровень 97.9 %
Качество трека 100.0 %
CRC теста 609EF71A
CRC копии 609EF71A
Точное извлечение (достоверность 42) [1B585D7A]
Копирование... OK
Трек 15
Имя файла C:\Documents and Settings\Krasnov\Мои документы\Downloads\15 - My Girl.wav
Длина предзазора 0:00:02.15
Пиковый уровень 58.6 %
Качество трека 99.9 %
CRC теста 893885EA
CRC копии 893885EA
Точное извлечение (достоверность 43) [87A96C24]
Копирование... OK
Трек 16
Имя файла C:\Documents and Settings\Krasnov\Мои документы\Downloads\16 - A Change Is Gonna Come.wav
Длина предзазора 0:00:03.65
Пиковый уровень 94.6 %
Качество трека 100.0 %
CRC теста EDDE9893
CRC копии EDDE9893
Точное извлечение (достоверность 42) [DCDA5BD0]
Копирование... OK
Трек 17
Имя файла C:\Documents and Settings\Krasnov\Мои документы\Downloads\17 - I've Been Loving You Too Long.wav
Длина предзазора 0:00:02.05
Пиковый уровень 100.0 %
Качество трека 100.0 %
CRC теста 4236DA0A
CRC копии 4236DA0A
Точное извлечение (достоверность 43) [F0C14B6E]
Копирование... OK
Трек 18
Имя файла C:\Documents and Settings\Krasnov\Мои документы\Downloads\18 - Try A Little Tenderness.wav
Длина предзазора 0:00:02.45
Пиковый уровень 96.9 %
Качество трека 100.0 %
CRC теста D13A0FB8
CRC копии D13A0FB8
Точное извлечение (достоверность 43) [5AA1275F]
Копирование... OK
Трек 19
Имя файла C:\Documents and Settings\Krasnov\Мои документы\Downloads\19 - Pain In My Heart.wav
Длина предзазора 0:00:02.55
Пиковый уровень 81.1 %
Качество трека 100.0 %
CRC теста BF879ED5
CRC копии BF879ED5
Точное извлечение (достоверность 42) [D46B3552]
Копирование... OK
Трек 20
Имя файла C:\Documents and Settings\Krasnov\Мои документы\Downloads\20 - (Sittin' On) The Dock Of The Bay.wav
Длина предзазора 0:00:03.48
Пиковый уровень 68.2 %
Качество трека 100.0 %
CRC теста 4E2B8A58
CRC копии 4E2B8A58
Точное извлечение (достоверность 42) [B247EDEA]
Копирование... OK
Все треки извлечены точно
Ошибок не произошло
Конец отчёта
Приватный:
Нет (DHT включён)
Размер:
311.22 Мб (326,332,952 байт) » файлов: 27
Участники:
0 раздают, 0 качают (0 участников всего)
Внешние участники:
2 раздают, 1 качают (3 участников всего) [ Обновить ]
Никого нет на раздаче - пишите личное сообщение M0p94ok
No seeders - write personal message to M0p94ok
02:06
10
Нет комментариев. Ваш будет первым!