Поиск

(Funk/Soul) Commodores - Live! - 1977, FLAC (tracks+.cue), lossless

(Funk/Soul) Commodores - Live! - 1977, FLAC (tracks+.cue), lossless
Треклист:
Commodores - Live!
Жанр: Funk/Soul
Год выпуска диска: 1977 (1991)
Производитель диска: Germany (Motown WD72439)
Аудио кодек: FLAC
Тип рипа: tracks+.cue
Битрейт аудио: lossless
Продолжительность: 73 min
Трэклист:
1. Won't You Come Dance With Me
2. Slippery When Wet
3. Come Inside
4. Just to Be Close to You
5. Funny Feelings
6. Fancy Dancer
7. Sweet Love
8. Zoom
9. Easy
10. I Feel Sanctified
11. Brick House
12. Too Hot Ta Trot
Доп. информация:
 
Отчёт EAC
Exact Audio Copy V0.99 prebeta 5 from 4. May 2009
EAC extraction logfile from 4. January 2010, 11:01
Commodores / Live
Used drive : SONY CD-ROM CDU5231 Adapter: 3 ID: 1
Read mode : Secure
Utilize accurate stream : Yes
Defeat audio cache : Yes
Make use of C2 pointers : No
Read offset correction : 691
Overread into Lead-In and Lead-Out : No
Fill up missing offset samples with silence : Yes
Delete leading and trailing silent blocks : No
Null samples used in CRC calculations : Yes
Used interface : Native Win32 interface for Win NT & 2000
Gap handling : Appended to previous track
Used output format : Internal WAV Routines
Sample format : 44.100 Hz; 16 Bit; Stereo
TOC of the extracted CD
Track | Start | Length | Start sector | End sector
---------------------------------------------------------
1 | 0:00.33 | 3:42.30 | 33 | 16712
2 | 3:42.63 | 3:02.45 | 16713 | 30407
3 | 6:45.33 | 3:26.25 | 30408 | 45882
4 | 10:11.58 | 7:15.50 | 45883 | 78557
5 | 17:27.33 | 5:19.57 | 78558 | 102539
6 | 22:47.15 | 4:59.48 | 102540 | 125012
7 | 27:46.63 | 8:41.45 | 125013 | 164132
8 | 36:28.33 | 10:19.47 | 164133 | 210604
9 | 46:48.05 | 7:29.28 | 210605 | 244307
10 | 54:17.33 | 2:56.60 | 244308 | 257567
11 | 57:14.18 | 10:20.65 | 257568 | 304132
12 | 67:35.08 | 5:38.72 | 304133 | 329554
Track 1
Filename D:\01 - Won't You Come Dance With Me.wav
Pre-gap length 0:00:02.33
Peak level 83.2 %
Track quality 100.0 %
Test CRC 0BDCD719
Copy CRC 0BDCD719
Cannot be verified as accurate (confidence 2) [3CB52587], AccurateRip returned [E5281E46]
Copy OK
Track 2
Filename D:\02 - Slippery When Wet.wav
Pre-gap length 0:00:00.08
Peak level 72.2 %
Track quality 99.9 %
Test CRC 4C7CC824
Copy CRC 4C7CC824
Cannot be verified as accurate (confidence 2) [4A9A2A9D], AccurateRip returned [11C6ED8E]
Copy OK
Track 3
Filename D:\03 - Come Inside.wav
Pre-gap length 0:00:00.08
Peak level 69.5 %
Track quality 100.0 %
Test CRC 2EFB1645
Copy CRC 2EFB1645
Cannot be verified as accurate (confidence 2) [AB6983D2], AccurateRip returned [FEF3A11B]
Copy OK
Track 4
Filename D:\04 - Just To Be Close To You.wav
Pre-gap length 0:00:00.08
Peak level 71.6 %
Track quality 99.9 %
Test CRC DFEFDB42
Copy CRC DFEFDB42
Cannot be verified as accurate (confidence 2) [EE7219E0], AccurateRip returned [5C4CCBFF]
Copy OK
Track 5
Filename D:\05 - Funny Feelings.wav
Pre-gap length 0:00:01.61
Peak level 66.4 %
Track quality 99.9 %
Test CRC 42CDCB9C
Copy CRC 42CDCB9C
Cannot be verified as accurate (confidence 2) [63638C69], AccurateRip returned [7BF6EE7A]
Copy OK
Track 6
Filename D:\06 - Fancy Dancer.wav
Pre-gap length 0:00:00.08
Peak level 75.1 %
Track quality 100.0 %
Test CRC 1C6F247E
Copy CRC 1C6F247E
Cannot be verified as accurate (confidence 2) [3E749AFC], AccurateRip returned [F5C1D3A5]
Copy OK
Track 7
Filename D:\07 - Sweet Love.wav
Pre-gap length 0:00:00.08
Peak level 64.5 %
Track quality 100.0 %
Test CRC 922BCBC0
Copy CRC 922BCBC0
Cannot be verified as accurate (confidence 2) [43931AA4], AccurateRip returned [03BDFA02]
Copy OK
Track 8
Filename D:\08 - Zoom.wav
Pre-gap length 0:00:01.73
Peak level 79.7 %
Track quality 99.9 %
Test CRC A93A28F6
Copy CRC A93A28F6
Cannot be verified as accurate (confidence 2) [4E2AA140], AccurateRip returned [DEF57BA2]
Copy OK
Track 9
Filename D:\09 - Easy.wav
Pre-gap length 0:00:00.08
Peak level 67.6 %
Track quality 100.0 %
Test CRC A9189DAD
Copy CRC A9189DAD
Cannot be verified as accurate (confidence 2) [CF33986B], AccurateRip returned [1852AD01]
Copy OK
Track 10
Filename D:\10 - I Feel Sanctified.wav
Pre-gap length 0:00:02.01
Peak level 60.0 %
Track quality 100.0 %
Test CRC 72B864A8
Copy CRC 72B864A8
Cannot be verified as accurate (confidence 2) [F97F0B65], AccurateRip returned [D1872539]
Copy OK
Track 11
Filename D:\11 - Brick House.wav
Pre-gap length 0:00:00.08
Peak level 70.1 %
Track quality 100.0 %
Test CRC F3A99DA4
Copy CRC F3A99DA4
Cannot be verified as accurate (confidence 2) [27B7585A], AccurateRip returned [B267CC4E]
Copy OK
Track 12
Filename D:\12 - Too Hot Ta Trot.wav
Pre-gap length 0:00:01.59
Peak level 73.5 %
Track quality 100.0 %
Test CRC 1217FE5E
Copy CRC 1217FE5E
Cannot be verified as accurate (confidence 2) [655000F5], AccurateRip returned [FFB1E285]
Copy OK
No tracks could be verified as accurate
You may have a different pressing from the one(s) in the database
No errors occurred
End of status report
Приватный:
Нет (DHT включён)
Размер:
466.78 Мб (489,452,259 байт) » файлов: 14
Участники:
0 раздают, 0 качают (0 участников всего)
Внешние участники:
1 раздают, 0 качают (1 участников всего) [ Обновить ]
Никого нет на раздаче - пишите личное сообщение M0p94ok
No seeders - write personal message to M0p94ok
02:05
25
Нет комментариев. Ваш будет первым!