Вы используете незарегистрированную версию компонента "Вкладки"!

Поиск

(Progressive Jazz / Modern Creative / Post-Bop / Innova) Salo - Sundial Lotus - 2010, FLAC (image+.cue) lossless

Треклист:
Salo - Sundial Lotus

Жанр: Progressive Jazz / Modern Creative / Post-Bop
Страна-производитель диска: USA
Год издания диска: 2010
Издатель (лейбл): Innova 772
Аудио кодек: FLAC (*.flac)
Тип рипа: image+.cue
Битрейт аудио: lossless
Продолжительность: 48:10
Источник (релизер): собственный рип
Наличие сканов в содержимом раздачи: нет
Alex Hamlin: alto and baritone saxophones
Ed Rosenberg: tenor saxophone
Josh Rutner: tenor saxophone, bass clarinet
Andrew Smiley: electric guitar
Red Wierenga: piano, keyboards
Ben Gallina: upright bass, electric bass
Alex Wyatt: drums, percussion
1. The Sky Is an Eye
2. Metamorphistopheles
3. Orbitron Revoluto
4. Worm Emperor
5. Glowing Orbes
6. Sundial Lotus
7. Trans-Galactic Sleep Chamber
All compositions by Ben Gallina, except "Sundial Lotus," which contains an arrangement of "Ludus Tonalis: Fuga Secunda in G," by Paul Hindemith.
Recorded on 8/19/09 by Alessandro Perrotta at Bennett Studios
 
Лог создания рипа
Exact Audio Copy V0.99 prebeta 4 from 23. January 2008
EAC extraction logfile from 23. September 2010, 21:58
Salo / Sundial Lotus
Used drive : TSSTcorpCD/DVDW SH-S182M Adapter: 1 ID: 0
Read mode : Secure
Utilize accurate stream : Yes
Defeat audio cache : Yes
Make use of C2 pointers : No
Read offset correction : 6
Overread into Lead-In and Lead-Out : No
Fill up missing offset samples with silence : Yes
Delete leading and trailing silent blocks : No
Null samples used in CRC calculations : Yes
Used interface : Installed external ASPI interface
Used output format : User Defined Encoder
Selected bitrate : 1024 kBit/s
Quality : High
Add ID3 tag : No
Command line compressor : C:\Program Files\Exact Audio Copy\Flac\flac.exe
Additional command line options : -6 -V -T "ARTIST=%a" -T "TITLE=%t" -T "ALBUM=%g" -T "DATE=%y" -T "TRACKNUMBER=%n" -T "GENRE=%m" -T "COMMENT=EAC FLAC -6" %s
TOC of the extracted CD
Track | Start | Length | Start sector | End sector
---------------------------------------------------------
1 | 0:00.00 | 7:17.42 | 0 | 32816
2 | 7:17.42 | 3:58.50 | 32817 | 50716
3 | 11:16.17 | 7:03.58 | 50717 | 82499
4 | 18:20.00 | 7:45.08 | 82500 | 117382
5 | 26:05.08 | 7:07.40 | 117383 | 149447
6 | 33:12.48 | 7:26.48 | 149448 | 182945
7 | 40:39.21 | 7:30.18 | 182946 | 216713
Range status and errors
Selected range
Filename C:\Users\Igor\Music\eac\Salo - Sundial Lotus.wav
Peak level 100.0 %
Range quality 100.0 %
Test CRC F876ECCD
Copy CRC F876ECCD
Copy OK
No errors occurred
AccurateRip summary
Track 1 not present in database
Track 2 not present in database
Track 3 not present in database
Track 4 not present in database
Track 5 not present in database
Track 6 not present in database
Track 7 not present in database
None of the tracks are present in the AccurateRip database
End of status report
Any questions -> support@pro-jazz.com. По всем вопросам пишите -> support@pro-jazz.com
05:48
169
Нет комментариев. Ваш будет первым!