Вы используете незарегистрированную версию компонента "Вкладки"!

Поиск

(modern creative / experimental / japan) Jun Miyake { 三宅 純 } - TOKOSHIE no TENOHIRA { 永遠乃掌 ラブユートーキョウ }, 1988, FLAC(tracks+.cue) lossless

Треклист:
Jun Miyake { 三宅 純 } / TOKOSHIE no TENOHIRA { 永遠乃掌 ラブユートーキョウ } (1988)
Жанр: jazz / modern creative / experimental / trumpet / japan
Страна-производитель cd-диска: japan
Год издания cd-диска: 1988
Издатель (лейбл): SWITCH 45R.P.M / CANYON RECORDS / PONY CANYON
Номер по каталогу: 32WD-0003
Аудио кодек: FLAC (*.flac)
Тип рипа: tracks+.cue
Битрейт аудио: lossless
Продолжительность: 00:42:15
Источник (релизер): рип мой . cd тоже .
Наличие сканов в содержимом раздачи: нет
Треклист:
01. Lay-La-La-Roy
02. TOKOSHIE no TENOHIRA 〈永遠乃掌 〉
03. Knife
04. Sugar Snow
05. Para Media
06. Keisetsu 〈蛍雪〉
07. Sweet Home Town
08. Tokonatsu no Urei 〈常夏乃憂ヒ〉
09. Summer Time
10. Sina-San
11. Hoshikuzu 〈ホシクズ〉
12. Otome no Muneni 〈乙女ノ胸ニ〉
13. Para Media II
14. Mori no Yume 〈森ノ夢〉
 
Лог создания рипа
Exact Audio Copy V0.99 prebeta 5 from 4. May 2009
EAC extraction logfile from 23. November 2010, 18:04
Jun Miyake / TOKOSHIE no TENOHIRA
Used drive : SONY DVD RW DRX-S70U Adapter: 1 ID: 0
Read mode : Secure
Utilize accurate stream : Yes
Defeat audio cache : Yes
Make use of C2 pointers : No
Read offset correction : 48
Overread into Lead-In and Lead-Out : No
Fill up missing offset samples with silence : Yes
Delete leading and trailing silent blocks : No
Null samples used in CRC calculations : Yes
Used interface : Native Win32 interface for Win NT & 2000
Gap handling : Appended to previous track
Used output format : User Defined Encoder
Selected bitrate : 768 kBit/s
Quality : High
Add ID3 tag : No
Command line compressor : H:\Program Files\Exact Audio Copy\Flac\flac.exe
Additional command line options : -6 -V -T "ARTIST=%a" -T "TITLE=%t" -T "ALBUM=%g" -T "DATE=%y" -T "TRACKNUMBER=%n" -T "GENRE=%m" -T "COMMENT=%e" %s -o %d
TOC of the extracted CD
Track | Start | Length | Start sector | End sector
---------------------------------------------------------
1 | 0:00.00 | 4:36.00 | 0 | 20699
2 | 4:36.00 | 4:53.05 | 20700 | 42679
3 | 9:29.05 | 3:02.43 | 42680 | 56372
4 | 12:31.48 | 3:43.27 | 56373 | 73124
5 | 16:15.00 | 3:19.45 | 73125 | 88094
6 | 19:34.45 | 2:23.18 | 88095 | 98837
7 | 21:57.63 | 4:05.22 | 98838 | 117234
8 | 26:03.10 | 3:16.68 | 117235 | 132002
9 | 29:20.03 | 2:25.42 | 132003 | 142919
10 | 31:45.45 | 1:05.68 | 142920 | 147862
11 | 32:51.38 | 3:36.62 | 147863 | 164124
12 | 36:28.25 | 0:46.48 | 164125 | 167622
13 | 37:14.73 | 3:31.40 | 167623 | 183487
14 | 40:46.38 | 1:28.50 | 183488 | 190137
Track 1
Filename F:\What.CD\Jun Miyake (TOKOSHIE no TENOHIRA 1988)\[01]Lay-La-La-Roy.wav
Pre-gap length 0:00:02.00
Peak level 81.4 %
Track quality 100.0 %
Test CRC C7851331
Copy CRC C7851331
Track not present in AccurateRip database
Copy OK
Track 2
Filename F:\What.CD\Jun Miyake (TOKOSHIE no TENOHIRA 1988)\[02]TOKOSHIE no TENOHIRA.wav
Pre-gap length 0:00:00.49
Peak level 60.1 %
Track quality 100.0 %
Test CRC FF51C28D
Copy CRC FF51C28D
Track not present in AccurateRip database
Copy OK
Track 3
Filename F:\What.CD\Jun Miyake (TOKOSHIE no TENOHIRA 1988)\[03]Knife.wav
Peak level 77.8 %
Track quality 100.0 %
Test CRC ECBC4733
Copy CRC ECBC4733
Track not present in AccurateRip database
Copy OK
Track 4
Filename F:\What.CD\Jun Miyake (TOKOSHIE no TENOHIRA 1988)\[04]Sugar Snow.wav
Peak level 81.3 %
Track quality 100.0 %
Test CRC DE1291A5
Copy CRC DE1291A5
Track not present in AccurateRip database
Copy OK
Track 5
Filename F:\What.CD\Jun Miyake (TOKOSHIE no TENOHIRA 1988)\[05]Para Media.wav
Pre-gap length 0:00:00.82
Peak level 90.9 %
Track quality 100.0 %
Test CRC 25872504
Copy CRC 25872504
Track not present in AccurateRip database
Copy OK
Track 6
Filename F:\What.CD\Jun Miyake (TOKOSHIE no TENOHIRA 1988)\[06]Keisetsu.wav
Peak level 95.6 %
Track quality 100.0 %
Test CRC CD8CC0F5
Copy CRC CD8CC0F5
Track not present in AccurateRip database
Copy OK
Track 7
Filename F:\What.CD\Jun Miyake (TOKOSHIE no TENOHIRA 1988)\[07]Sweet Home Town.wav
Pre-gap length 0:00:01.46
Peak level 100.0 %
Track quality 100.0 %
Test CRC 134D1880
Copy CRC 134D1880
Track not present in AccurateRip database
Copy OK
Track 8
Filename F:\What.CD\Jun Miyake (TOKOSHIE no TENOHIRA 1988)\[08]Tokonatsu no Urei.wav
Peak level 70.7 %
Track quality 99.9 %
Test CRC 27BA36B2
Copy CRC 27BA36B2
Track not present in AccurateRip database
Copy OK
Track 9
Filename F:\What.CD\Jun Miyake (TOKOSHIE no TENOHIRA 1988)\[09]Summer Time.wav
Pre-gap length 0:00:00.46
Peak level 89.6 %
Track quality 100.0 %
Test CRC D2AA05FD
Copy CRC D2AA05FD
Track not present in AccurateRip database
Copy OK
Track 10
Filename F:\What.CD\Jun Miyake (TOKOSHIE no TENOHIRA 1988)\[10]Sina-San.wav
Peak level 43.5 %
Track quality 100.0 %
Test CRC CAD4C5AB
Copy CRC CAD4C5AB
Track not present in AccurateRip database
Copy OK
Track 11
Filename F:\What.CD\Jun Miyake (TOKOSHIE no TENOHIRA 1988)\[11]Hoshikuzu.wav
Peak level 51.1 %
Track quality 99.9 %
Test CRC 7B663760
Copy CRC 7B663760
Track not present in AccurateRip database
Copy OK
Track 12
Filename F:\What.CD\Jun Miyake (TOKOSHIE no TENOHIRA 1988)\[12]Otome no Muneni.wav
Peak level 55.9 %
Track quality 100.0 %
Test CRC 04945014
Copy CRC 04945014
Track not present in AccurateRip database
Copy OK
Track 13
Filename F:\What.CD\Jun Miyake (TOKOSHIE no TENOHIRA 1988)\[13]Para Media II.wav
Peak level 78.6 %
Track quality 99.9 %
Test CRC FD226865
Copy CRC FD226865
Track not present in AccurateRip database
Copy OK
Track 14
Filename F:\What.CD\Jun Miyake (TOKOSHIE no TENOHIRA 1988)\[14]Mori no Yume.wav
Pre-gap length 0:00:01.37
Peak level 46.4 %
Track quality 99.8 %
Test CRC 4A5443D6
Copy CRC 4A5443D6
Track not present in AccurateRip database
Copy OK
None of the tracks are present in the AccurateRip database
No errors occurred
End of status report
 
Содержание индексной карты (.CUE)
REM GENRE "Modern Creative"
REM DATE 1988
REM DISCID D409E70E
REM COMMENT "ExactAudioCopy v0.99pb5"
PERFORMER "Jun Miyake"
TITLE "TOKOSHIE no TENOHIRA"
FILE "[01]Lay-La-La-Roy.wav" WAVE
TRACK 01 AUDIO
TITLE "Lay-La-La-Roy"
PERFORMER "Jun Miyake"
INDEX 01 00:00:00
TRACK 02 AUDIO
TITLE "TOKOSHIE no TENOHIRA"
PERFORMER "Jun Miyake"
INDEX 00 04:35:38
FILE "[02]TOKOSHIE no TENOHIRA.wav" WAVE
INDEX 01 00:00:00
FILE "[03]Knife.wav" WAVE
TRACK 03 AUDIO
TITLE "Knife"
PERFORMER "Jun Miyake"
INDEX 01 00:00:00
FILE "[04]Sugar Snow.wav" WAVE
TRACK 04 AUDIO
TITLE "Sugar Snow"
PERFORMER "Jun Miyake"
INDEX 01 00:00:00
TRACK 05 AUDIO
TITLE "Para Media"
PERFORMER "Jun Miyake"
INDEX 00 03:42:40
FILE "[05]Para Media.wav" WAVE
INDEX 01 00:00:00
FILE "[06]Keisetsu.wav" WAVE
TRACK 06 AUDIO
TITLE "Keisetsu"
PERFORMER "Jun Miyake"
INDEX 01 00:00:00
TRACK 07 AUDIO
TITLE "Sweet Home Town"
PERFORMER "Jun Miyake"
INDEX 00 02:21:58
FILE "[07]Sweet Home Town.wav" WAVE
INDEX 01 00:00:00
FILE "[08]Tokonatsu no Urei.wav" WAVE
TRACK 08 AUDIO
TITLE "Tokonatsu no Urei"
PERFORMER "Jun Miyake"
INDEX 01 00:00:00
TRACK 09 AUDIO
TITLE "Summer Time"
PERFORMER "Jun Miyake"
INDEX 00 03:16:33
FILE "[09]Summer Time.wav" WAVE
INDEX 01 00:00:00
FILE "[10]Sina-San.wav" WAVE
TRACK 10 AUDIO
TITLE "Sina-San"
PERFORMER "Jun Miyake"
INDEX 01 00:00:00
FILE "[11]Hoshikuzu.wav" WAVE
TRACK 11 AUDIO
TITLE "Hoshikuzu"
PERFORMER "Jun Miyake"
INDEX 01 00:00:00
FILE "[12]Otome no Muneni.wav" WAVE
TRACK 12 AUDIO
TITLE "Otome no Muneni"
PERFORMER "Jun Miyake"
INDEX 01 00:00:00
FILE "[13]Para Media II.wav" WAVE
TRACK 13 AUDIO
TITLE "Para Media II"
PERFORMER "Jun Miyake"
INDEX 01 00:00:00
TRACK 14 AUDIO
TITLE "Mori no Yume"
PERFORMER "Jun Miyake"
INDEX 00 03:30:12
FILE "[14]Mori no Yume.wav" WAVE
INDEX 01 00:00:00
 
Лог проверки качества
AUDIOCHECKER v2.0 beta (build 457) - by Dester - opdester@freemail.hu
~~~~~~~~~~~~~~~~~~~~~~~~~~~~~~~~~~
-=== DO NOT EDIT THIS FILE! ===-
Path: ...\Jun Miyake (TOKOSHIE no TENOHIRA 1988)
01 -=- [01]Lay-La-La-Roy.flac -=- CDDA (99%)
02 -=- [02]TOKOSHIE no TENOHIRA.flac -=- CDDA (100%)
03 -=- [03]Knife.flac -=- CDDA (100%)
04 -=- [04]Sugar Snow.flac -=- CDDA (100%)
05 -=- [05]Para Media.flac -=- CDDA (100%)
06 -=- [06]Keisetsu.flac -=- CDDA (100%)
07 -=- [07]Sweet Home Town.flac -=- CDDA (100%)
08 -=- [08]Tokonatsu no Urei.flac -=- CDDA (100%)
09 -=- [09]Summer Time.flac -=- CDDA (100%)
10 -=- [10]Sina-San.flac -=- CDDA (100%)
11 -=- [11]Hoshikuzu.flac -=- CDDA (100%)
12 -=- [12]Otome no Muneni.flac -=- CDDA (100%)
13 -=- [13]Para Media II.flac -=- CDDA (100%)
14 -=- [14]Mori no Yume.flac -=- CDDA (99%)
Summary 99,86% CDDA
76937332
 
Об исполнителе (группе)
 
Состав
三宅純 : trumpet(1,3,4,7,11)、keyboards/programming(except_10,11)、flugelhorn(2,5,9,10,13)、whistle(2)、trumpet's_mouth_piece(6)、kiss(6)、pocket_trumpet(8)
村川“ジミー”聡 : vocal(1,4,11)
かの香織 : vocal(5,13)
前田祐希 : vocal(9)
Barelly Robe : vocal(2)、percussion(2)
山木秀夫 : drums(4)
渡辺等 : bass(1,2,4,9)
樋沢達彦 : bass(6)
Victor Bailey : bass(7)
渡辺モリオ : bass(9)
伊丹雅博 : guitar(9,10,11)
窪田晴男 : guitar(4,7)
Bobby Broom : guitar(6)
三沢またろう : percussion(5,13)
宮本大路 : alto sax(1,11)、drums(11)
矢口博康 : tenor sax(4)
小林靖宏 : accordion(11)
瀬川英史 : synthesizer_operate(1,2,5,6,7,9,12,13,14)、harmonica(10)
船山健一(Tokyo Hot Club Band) : guitar(8)
小林清(Tokyo Hot Club Band) : guitar(8)、steel guitar(8)
大矢貞男(Tokyo Hot Club Band) : violin(8)
田野重松(Tokyo Hot Club Band) : bass(8)
необычный альбом, стиль, жанр - впрочем как и всё у японцев . слушать можно всем (даже людям далёким от джаза)
если буковки кому захочется прочитать - http://nihongo.j-talk.com/kanji/
и может отзывы будут ? или наводки на подобные проекты (Yello не предлогать ) - нужны для работы . пара альбомов этого трубача уже есть на нашем трэкере, спасибо Torturegarden :
http://rutracker.org/forum/viewtopic.php?t=870568
http://rutracker.org/forum/viewtopic.php?t=2939869
По всем вопросам пишите личное сообщение пользователю M0p94ok.
05:49
241
Нет комментариев. Ваш будет первым!