Поиск

(Progressive Big Band) New Cool Collective Big Band - Pachinko - 2010, FLAC (tracks+.cue), lossless

Треклист:
New Cool Collective Big Band - Pachinko
Жанр: Progressive Big Band
Год выпуска : 2010
Лейбл: Dox Records
Аудио кодек: FLAC
Тип рипа: tracks+.cue
Битрейт аудио: lossless
Продолжительность: 00:56:32
Рип: Oizon911 - What CD


01. Pachinko (4:18)
02. Little Black Dress (3:58)
03. Circus Circus (5:00)
04. Bingo Bongo (5:42)
05. Pasmo (4:58)
06. We're All Going Up (4:32)
07. Heartland (3:54)
08. Black Gardenia (5:13)
09. Peace and Happiness (6:50)
10. Sugar Rush (5:26)
11. The Diabolical Dr. Z (3:56)
12. Japanese Bonus (2:46)

 
EAC
Exact Audio Copy V0.99 prebeta 5 from 4. May 2009
EAC extraction logfile from 1. May 2010, 16:16
New Cool Collective Big Band / Pachinko
Used drive : Optiarc DVD RW AD-7200S Adapter: 0 ID: 0
Read mode : Secure
Utilize accurate stream : Yes
Defeat audio cache : Yes
Make use of C2 pointers : No
Read offset correction : 48
Overread into Lead-In and Lead-Out : No
Fill up missing offset samples with silence : Yes
Delete leading and trailing silent blocks : No
Null samples used in CRC calculations : Yes
Used interface : Native Win32 interface for Win NT & 2000
Gap handling : Appended to previous track
Used output format : User Defined Encoder
Selected bitrate : 320 kBit/s
Quality : High
Add ID3 tag : No
Command line compressor : C:\Program Files (x86)\Exact Audio Copy\Flac\flac.exe
Additional command line options : -V -8 -T "artist=%a" -T "title=%t" -T "album=%g" -T "date=%y" -T "tracknumber=%n" -T "genre=%m" %s
TOC of the extracted CD
Track | Start | Length | Start sector | End sector
---------------------------------------------------------
1 | 0:00.00 | 4:17.73 | 0 | 19347
2 | 4:17.73 | 3:58.00 | 19348 | 37197
3 | 8:15.73 | 5:00.00 | 37198 | 59697
4 | 13:15.73 | 5:42.00 | 59698 | 85347
5 | 18:57.73 | 4:57.74 | 85348 | 107696
6 | 23:55.72 | 4:32.00 | 107697 | 128096
7 | 28:27.72 | 3:53.60 | 128097 | 145631
8 | 32:21.57 | 5:12.45 | 145632 | 169076
9 | 37:34.27 | 6:50.02 | 169077 | 199828
10 | 44:24.29 | 5:25.59 | 199829 | 224262
11 | 49:50.13 | 3:55.47 | 224263 | 241934
12 | 53:45.60 | 2:46.30 | 241935 | 254414
Track 1
Filename E:\EAC Rips\FLAC\New Cool Collective Big Band - Pachinko\01 - Pachinko.wav
Pre-gap length 0:00:02.00
Peak level 99.5 %
Track quality 100.0 %
Test CRC 9DD0412C
Copy CRC 9DD0412C
Track not present in AccurateRip database
Copy OK
Track 2
Filename E:\EAC Rips\FLAC\New Cool Collective Big Band - Pachinko\02 - Little Black Dress.wav
Peak level 99.9 %
Track quality 100.0 %
Test CRC B8AEF477
Copy CRC B8AEF477
Track not present in AccurateRip database
Copy OK
Track 3
Filename E:\EAC Rips\FLAC\New Cool Collective Big Band - Pachinko\03 - Circus Circus.wav
Peak level 99.6 %
Track quality 100.0 %
Test CRC A6AA4A58
Copy CRC A6AA4A58
Track not present in AccurateRip database
Copy OK
Track 4
Filename E:\EAC Rips\FLAC\New Cool Collective Big Band - Pachinko\04 - Bingo Bongo.wav
Peak level 99.9 %
Track quality 100.0 %
Test CRC C55BF118
Copy CRC C55BF118
Track not present in AccurateRip database
Copy OK
Track 5
Filename E:\EAC Rips\FLAC\New Cool Collective Big Band - Pachinko\05 - Pasmo.wav
Pre-gap length 0:00:01.97
Peak level 99.8 %
Track quality 100.0 %
Test CRC 5C345373
Copy CRC 5C345373
Track not present in AccurateRip database
Copy OK
Track 6
Filename E:\EAC Rips\FLAC\New Cool Collective Big Band - Pachinko\06 - We're All Going Up.wav
Pre-gap length 0:00:01.97
Peak level 99.6 %
Track quality 100.0 %
Test CRC 5FBA73BD
Copy CRC 5FBA73BD
Track not present in AccurateRip database
Copy OK
Track 7
Filename E:\EAC Rips\FLAC\New Cool Collective Big Band - Pachinko\07 - Heartland.wav
Pre-gap length 0:00:01.98
Peak level 99.5 %
Track quality 100.0 %
Test CRC 3E8DDD6E
Copy CRC 3E8DDD6E
Track not present in AccurateRip database
Copy OK
Track 8
Filename E:\EAC Rips\FLAC\New Cool Collective Big Band - Pachinko\08 - Black Gardenia.wav
Peak level 99.9 %
Track quality 100.0 %
Test CRC 53F8F64A
Copy CRC 53F8F64A
Track not present in AccurateRip database
Copy OK
Track 9
Filename E:\EAC Rips\FLAC\New Cool Collective Big Band - Pachinko\09 - Peace and Happiness.wav
Peak level 99.5 %
Track quality 100.0 %
Test CRC B3E9681C
Copy CRC B3E9681C
Track not present in AccurateRip database
Copy OK
Track 10
Filename E:\EAC Rips\FLAC\New Cool Collective Big Band - Pachinko\10 - Sugar Rush.wav
Pre-gap length 0:00:01.97
Peak level 99.8 %
Track quality 100.0 %
Test CRC DC230394
Copy CRC DC230394
Track not present in AccurateRip database
Copy OK
Track 11
Filename E:\EAC Rips\FLAC\New Cool Collective Big Band - Pachinko\11 - The Diabolical Dr. Z.wav
Pre-gap length 0:00:00.97
Peak level 99.7 %
Track quality 100.0 %
Test CRC DDF2AAF2
Copy CRC DDF2AAF2
Track not present in AccurateRip database
Copy OK
Track 12
Filename E:\EAC Rips\FLAC\New Cool Collective Big Band - Pachinko\12 - Japanese Bonus.wav
Pre-gap length 0:00:01.60
Peak level 99.8 %
Track quality 99.9 %
Test CRC E11A9DF4
Copy CRC E11A9DF4
Track not present in AccurateRip database
Copy OK
None of the tracks are present in the AccurateRip database
No errors occurred
End of status report
 
CUE
REM GENRE Jazz
REM DATE 2010
REM DISCID C30D400C
REM COMMENT "ExactAudioCopy v0.99pb5"
PERFORMER "New Cool Collective Big Band"
TITLE "Pachinko"
FILE "01 - Pachinko.wav" WAVE
TRACK 01 AUDIO
TITLE "Pachinko"
PERFORMER "New Cool Collective Big Band"
INDEX 01 00:00:00
FILE "02 - Little Black Dress.wav" WAVE
TRACK 02 AUDIO
TITLE "Little Black Dress"
PERFORMER "New Cool Collective Big Band"
INDEX 01 00:00:00
FILE "03 - Circus Circus.wav" WAVE
TRACK 03 AUDIO
TITLE "Circus Circus"
PERFORMER "New Cool Collective Big Band"
INDEX 01 00:00:00
FILE "04 - Bingo Bongo.wav" WAVE
TRACK 04 AUDIO
TITLE "Bingo Bongo"
PERFORMER "New Cool Collective Big Band"
INDEX 01 00:00:00
TRACK 05 AUDIO
TITLE "Pasmo"
PERFORMER "New Cool Collective Big Band"
INDEX 00 05:40:02
FILE "05 - Pasmo.wav" WAVE
INDEX 01 00:00:00
TRACK 06 AUDIO
TITLE "We're All Going Up"
PERFORMER "New Cool Collective Big Band"
INDEX 00 04:56:01
FILE "06 - We're All Going Up.wav" WAVE
INDEX 01 00:00:00
TRACK 07 AUDIO
TITLE "Heartland"
PERFORMER "New Cool Collective Big Band"
INDEX 00 04:30:01
FILE "07 - Heartland.wav" WAVE
INDEX 01 00:00:00
FILE "08 - Black Gardenia.wav" WAVE
TRACK 08 AUDIO
TITLE "Black Gardenia"
PERFORMER "New Cool Collective Big Band"
INDEX 01 00:00:00
FILE "09 - Peace and Happiness.wav" WAVE
TRACK 09 AUDIO
TITLE "Peace and Happiness"
PERFORMER "New Cool Collective Big Band"
INDEX 01 00:00:00
TRACK 10 AUDIO
TITLE "Sugar Rush"
PERFORMER "New Cool Collective Big Band"
INDEX 00 06:48:04
FILE "10 - Sugar Rush.wav" WAVE
INDEX 01 00:00:00
TRACK 11 AUDIO
TITLE "The Diabolical Dr. Z"
PERFORMER "New Cool Collective Big Band"
INDEX 00 05:24:61
FILE "11 - The Diabolical Dr. Z.wav" WAVE
INDEX 01 00:00:00
TRACK 12 AUDIO
TITLE "Japanese Bonus"
PERFORMER "New Cool Collective Big Band"
INDEX 00 03:54:02
FILE "12 - Japanese Bonus.wav" WAVE
INDEX 01 00:00:00
 
Audiochecker
Started at: понедельник, 03. 05. 2010. - 14:07.21
12 files found
01 -===- C:\Downloads\Music\Джаз\New Cool Collective Big Band - Pachinko - 2010\01 - Pachinko.flac
Extracted successfully
Conclusion: This track looks like CDDA with probability 100%
Tempfile successfully deleted.
02 -===- C:\Downloads\Music\Джаз\New Cool Collective Big Band - Pachinko - 2010\02 - Little Black Dress.flac
Extracted successfully
Conclusion: This track looks like CDDA with probability 100%
Tempfile successfully deleted.
03 -===- C:\Downloads\Music\Джаз\New Cool Collective Big Band - Pachinko - 2010\03 - Circus Circus.flac
Extracted successfully
Conclusion: This track looks like CDDA with probability 100%
Tempfile successfully deleted.
04 -===- C:\Downloads\Music\Джаз\New Cool Collective Big Band - Pachinko - 2010\04 - Bingo Bongo.flac
Extracted successfully
Conclusion: This track looks like CDDA with probability 100%
Tempfile successfully deleted.
05 -===- C:\Downloads\Music\Джаз\New Cool Collective Big Band - Pachinko - 2010\05 - Pasmo.flac
Extracted successfully
Conclusion: This track looks like CDDA with probability 100%
Tempfile successfully deleted.
06 -===- C:\Downloads\Music\Джаз\New Cool Collective Big Band - Pachinko - 2010\06 - We're All Going Up.flac
Extracted successfully
Conclusion: This track looks like CDDA with probability 100%
Tempfile successfully deleted.
07 -===- C:\Downloads\Music\Джаз\New Cool Collective Big Band - Pachinko - 2010\07 - Heartland.flac
Extracted successfully
Conclusion: This track looks like CDDA with probability 100%
Tempfile successfully deleted.
08 -===- C:\Downloads\Music\Джаз\New Cool Collective Big Band - Pachinko - 2010\08 - Black Gardenia.flac
Extracted successfully
Conclusion: This track looks like CDDA with probability 100%
Tempfile successfully deleted.
09 -===- C:\Downloads\Music\Джаз\New Cool Collective Big Band - Pachinko - 2010\09 - Peace and Happiness.flac
Extracted successfully
Conclusion: This track looks like CDDA with probability 99%
Tempfile successfully deleted.
10 -===- C:\Downloads\Music\Джаз\New Cool Collective Big Band - Pachinko - 2010\10 - Sugar Rush.flac
Extracted successfully
Conclusion: This track looks like CDDA with probability 100%
Tempfile successfully deleted.
11 -===- C:\Downloads\Music\Джаз\New Cool Collective Big Band - Pachinko - 2010\11 - The Diabolical Dr. Z.flac
Extracted successfully
Conclusion: This track looks like CDDA with probability 100%
Tempfile successfully deleted.
12 -===- C:\Downloads\Music\Джаз\New Cool Collective Big Band - Pachinko - 2010\12 - Japanese Bonus.flac
Extracted successfully
Conclusion: This track looks like CDDA with probability 100%
Tempfile successfully deleted.
Finished at: понедельник, 03. 05. 2010. - 14:17.49 (operation time: 0:10.28)

BENJAMIN HERMAN - SAXOPHONE
ANTON GOUDSMIT - GUITAR
JOOST KROON - DRUMMER
WILLEM FRIEDE - KEYBOARDS/ARRANGER
FRANK VAN DOK (ALIAS FRANKIE DOKKIE DOK) - PERCUSSION
JOS DE HAAS - PERCUSSION
LESLIE LOPEZ-BASS PLAYER
DAVID ROCKEFELLER - TRUMPET
14:33
275
Нет комментариев. Ваш будет первым!