Поиск

(Ethnic Fusion) Dhafer Youssef Ensemble - Mousafer - 1996, FLAC (image+.cue), lossless

(Ethnic Fusion) Dhafer Youssef Ensemble - Mousafer - 1996, FLAC (image+.cue), lossless
Треклист:
Dhafer Youssef Ensemble - Mousafer

Жанр: Ethnic Fusion
Год выпуска диска: 1995
Производитель диска: Extraplatte 259-2; Austria
Аудио кодек: FLAC
Тип рипа: image+.cue
Битрейт аудио: lossless
Продолжительность: 20:56
Dhafer Youssef: oud, voice
Anton Burger: violin
Achim Tang: double bass
Jatinder Thakur: tabla
guest:
Otto Lechner: accordion
1. Baraca
2. El Houb El Hindi
3. Am Naschmarkt
Recorded at Augarten Studio, Vienna, Dec. 1995
 
EAC Report
Доп. информация: Exact Audio Copy V0.99 prebeta 4 from 23. January 2008
EAC extraction logfile from 26. July 2008, 1:04
Dhafer Youssef Ensemble / Mousafer
Used drive : TSSTcorpCD/DVDW SH-S182M Adapter: 2 ID: 0
Read mode : Secure
Utilize accurate stream : Yes
Defeat audio cache : Yes
Make use of C2 pointers : No
Read offset correction : 6
Overread into Lead-In and Lead-Out : No
Fill up missing offset samples with silence : Yes
Delete leading and trailing silent blocks : No
Null samples used in CRC calculations : Yes
Used interface : Installed external ASPI interface
Used output format : User Defined Encoder
Selected bitrate : 1024 kBit/s
Quality : High
Add ID3 tag : No
Command line compressor : C:\Program Files\Exact Audio Copy\FLAC\FLAC.EXE
Additional command line options : -6 -V -T "ARTIST=%a" -T "TITLE=%t" -T "ALBUM=%g" -T "DATE=%y" -T "TRACKNUMBER=%n" -T "GENRE=%m" -T "COMMENT=%e" %s -o %d
TOC of the extracted CD
Track | Start | Length | Start sector | End sector
---------------------------------------------------------
1 | 0:00.00 | 6:21.50 | 0 | 28624
2 | 6:21.50 | 9:23.19 | 28625 | 70868
3 | 15:44.69 | 5:11.29 | 70869 | 94222
Range status and errors
Selected range
Filename F:\z\Dhafer Youssef Ensemble - Mousafer.wav
Peak level 93.8 %
Range quality 100.0 %
Copy CRC 4C0E5AC8
Copy OK
No errors occurred
AccurateRip summary
Track 1 not present in database
Track 2 not present in database
Track 3 not present in database
None of the tracks are present in the AccurateRip database
End of status report

рип собственный
14:32
308
Нет комментариев. Ваш будет первым!