Поиск

(Post-Bop, World Fusion) [CD] Amancio D'Silva - Integration - 1969 (2004), FLAC (tracks+.cue), lossless

(Post-Bop, World Fusion) [CD] Amancio D'Silva - Integration - 1969 (2004), FLAC (tracks+.cue), lossless
Треклист:
Amancio D'Silva - Integration
Жанр: Post-Bop, World Fusion
Носитель: CD
Страна-производитель диска (релиза): Великобритания
Год издания: 2004
Издатель (лейбл): Universal (Impressed Re-pressed)
Номер по каталогу: 986 689 3
Аудиокодек: FLAC (*.flac)
Тип рипа: tracks+.cue
Битрейт аудио: lossless
Продолжительность: 43:12
Источник (релизер): Soniko (what)
Наличие сканов в содержимом раздачи: нет
Треклист:
01. Ganges (D'Silva-Carr) - 6:21
02. Jaipur (D'Silva) - 6:51
03. Integration (D'Silva-Green-Rendell) - 4:22
04. Maharani (D'Silva) - 4:18
05. We Tell You This (D'Silva-Carr) - 7:02
06. Cry Free (Carr) - 7:51
07. Joyce Country (D'Silva) - 6:27
Состав:
Amancio D'Silva - guitar
Ian Carr - trumpet, flugelhorn
Don Rendell - tenor saxophone, soprano saxophone
Dave Green - bass
Trevor Tomkins - drums
Recorded at Landsdowne Studios, London in 1969.
 
Лог создания рипа
X Lossless Decoder version 20151214 (149.1)
XLD extraction logfile from 2016-03-01 17:27:16 -0800
Amancio D'Silva / Integration
Used drive : HL-DT-ST DVDRW GX50N (revision RR06)
Media type : Pressed CD
Ripper mode : XLD Secure Ripper
Disable audio cache : OK for the drive with a cache less than 1375KiB
Make use of C2 pointers : NO
Read offset correction : 6
Max retry count : 20
Gap status : Analyzed, Appended (except HTOA)
TOC of the extracted CD
Track | Start | Length | Start sector | End sector
---------------------------------------------------------
1 | 00:00:00 | 06:20:53 | 0 | 28552
2 | 06:20:53 | 06:50:50 | 28553 | 59352
3 | 13:11:28 | 04:22:21 | 59353 | 79023
4 | 17:33:49 | 04:18:23 | 79024 | 98396
5 | 21:51:72 | 07:02:18 | 98397 | 130064
6 | 28:54:15 | 07:51:29 | 130065 | 165418
7 | 36:45:44 | 06:27:36 | 165419 | 194479
AccurateRip Summary (DiscID: 000b865b-00453c42-510a2107)
Track 01 : OK (v2, confidence 2/2)
Track 02 : OK (v2, confidence 2/2)
Track 03 : OK (v2, confidence 2/2)
Track 04 : OK (v2, confidence 2/2)
Track 05 : OK (v2, confidence 2/2)
Track 06 : OK (v2, confidence 2/2)
Track 07 : OK (v2, confidence 2/2)
->All tracks accurately ripped.
All Tracks
Album gain : -5.68 dB
Peak : 0.966095
Statistics
Read error : 0
Jitter error (maybe fixed) : 0
Retry sector count : 0
Damaged sector count : 0
Track 01
Filename : /Users/Nik/Desktop/Amancio D'Silva - Integration (2004) [FLAC]/01 Ganges.flac
Pre-gap length : 00:02:00
Track gain : -6.91 dB
Peak : 0.966064
CRC32 hash (test run) : 7FA23A0A
CRC32 hash : 7FA23A0A
CRC32 hash (skip zero) : 46E3B904
AccurateRip v1 signature : 14B14949
AccurateRip v2 signature : DCD875E9
->Accurately ripped (v2, confidence 2/2)
Statistics
Read error : 0
Jitter error (maybe fixed) : 0
Retry sector count : 0
Damaged sector count : 0
Track 02
Filename : /Users/Nik/Desktop/Amancio D'Silva - Integration (2004) [FLAC]/02 Jaipur.flac
Pre-gap length : 00:02:65
Track gain : -6.63 dB
Peak : 0.966064
CRC32 hash (test run) : 856F8B4A
CRC32 hash : 856F8B4A
CRC32 hash (skip zero) : B26E7393
AccurateRip v1 signature : E085DE51
AccurateRip v2 signature : 35DBD34C
->Accurately ripped (v2, confidence 2/2)
Statistics
Read error : 0
Jitter error (maybe fixed) : 0
Retry sector count : 0
Damaged sector count : 0
Track 03
Filename : /Users/Nik/Desktop/Amancio D'Silva - Integration (2004) [FLAC]/03 Integration.flac
Pre-gap length : 00:02:65
Track gain : -4.79 dB
Peak : 0.966064
CRC32 hash (test run) : 3C193786
CRC32 hash : 3C193786
CRC32 hash (skip zero) : 4705FDB1
AccurateRip v1 signature : AE56DD87
AccurateRip v2 signature : 14221578
->Accurately ripped (v2, confidence 2/2)
Statistics
Read error : 0
Jitter error (maybe fixed) : 0
Retry sector count : 0
Damaged sector count : 0
Track 04
Filename : /Users/Nik/Desktop/Amancio D'Silva - Integration (2004) [FLAC]/04 Maharani.flac
Pre-gap length : 00:02:65
Track gain : -3.47 dB
Peak : 0.966034
CRC32 hash (test run) : 6257C003
CRC32 hash : 6257C003
CRC32 hash (skip zero) : BECC95E2
AccurateRip v1 signature : 278D546E
AccurateRip v2 signature : 0C0E3AAE
->Accurately ripped (v2, confidence 2/2)
Statistics
Read error : 0
Jitter error (maybe fixed) : 0
Retry sector count : 0
Damaged sector count : 0
Track 05
Filename : /Users/Nik/Desktop/Amancio D'Silva - Integration (2004) [FLAC]/05 We Tell You This.flac
Pre-gap length : 00:02:65
Track gain : -3.58 dB
Peak : 0.966064
CRC32 hash (test run) : FD3A781D
CRC32 hash : FD3A781D
CRC32 hash (skip zero) : 3E1BBE6E
AccurateRip v1 signature : C0FBA5D4
AccurateRip v2 signature : 3D8B3EB6
->Accurately ripped (v2, confidence 2/2)
Statistics
Read error : 0
Jitter error (maybe fixed) : 0
Retry sector count : 0
Damaged sector count : 0
Track 06
Filename : /Users/Nik/Desktop/Amancio D'Silva - Integration (2004) [FLAC]/06 Cry Free.flac
Pre-gap length : 00:02:65
Track gain : -4.95 dB
Peak : 0.966095
CRC32 hash (test run) : 0AA4D723
CRC32 hash : 0AA4D723
CRC32 hash (skip zero) : 54469E91
AccurateRip v1 signature : 51644072
AccurateRip v2 signature : 831B00B7
->Accurately ripped (v2, confidence 2/2)
Statistics
Read error : 0
Jitter error (maybe fixed) : 0
Retry sector count : 0
Damaged sector count : 0
Track 07
Filename : /Users/Nik/Desktop/Amancio D'Silva - Integration (2004) [FLAC]/07 Joyce Country.flac
Pre-gap length : 00:02:65
Track gain : -4.48 dB
Peak : 0.966034
CRC32 hash (test run) : 0557BC33
CRC32 hash : 0557BC33
CRC32 hash (skip zero) : 43A031EE
AccurateRip v1 signature : 936873AD
AccurateRip v2 signature : 26E3D7E3
->Accurately ripped (v2, confidence 2/2)
Statistics
Read error : 0
Jitter error (maybe fixed) : 0
Retry sector count : 0
Damaged sector count : 0
No errors occurred
End of status report
-----BEGIN XLD SIGNATURE-----
36DWibPYEggCh5fMokks9jRsmiuwOYnbowPaneMhmFjhOh5h9m4bIWZe4GX0yWmCxObnF75XPpHchmK8qVBhn0FwebmSLnwYM.YN_YG
-----END XLD SIGNATURE-----
 
Содержание индексной карты (.CUE)
TITLE "Integration"
PERFORMER "Amancio D'Silva"
CATALOG 0602498668931
REM GENRE "Jazz"
REM DATE "1969"
REM DISCID 510A2107
REM REPLAYGAIN_ALBUM_GAIN -5.68 dB
REM REPLAYGAIN_ALBUM_PEAK 0.966095
FILE "01 - Ganges.flac" WAVE
TRACK 01 AUDIO
TITLE "Ganges"
ISRC GBEKZ0400194
REM REPLAYGAIN_TRACK_GAIN -6.91 dB
REM REPLAYGAIN_TRACK_PEAK 0.966064
INDEX 01 00:00:00
TRACK 02 AUDIO
TITLE "Jaipur"
ISRC GBEKZ0400197
REM REPLAYGAIN_TRACK_GAIN -6.63 dB
REM REPLAYGAIN_TRACK_PEAK 0.966064
INDEX 00 06:17:63
FILE "02 - Jaipur.flac" WAVE
INDEX 01 00:00:00
TRACK 03 AUDIO
TITLE "Integration"
ISRC GBEKZ0400196
REM REPLAYGAIN_TRACK_GAIN -4.79 dB
REM REPLAYGAIN_TRACK_PEAK 0.966064
INDEX 00 06:47:60
FILE "03 - Integration.flac" WAVE
INDEX 01 00:00:00
TRACK 04 AUDIO
TITLE "Maharani"
ISRC GBEKZ0400199
REM REPLAYGAIN_TRACK_GAIN -3.47 dB
REM REPLAYGAIN_TRACK_PEAK 0.966034
INDEX 00 04:19:31
FILE "04 - Maharani.flac" WAVE
INDEX 01 00:00:00
TRACK 05 AUDIO
TITLE "We Tell You This"
ISRC GBEKZ0400200
REM REPLAYGAIN_TRACK_GAIN -3.58 dB
REM REPLAYGAIN_TRACK_PEAK 0.966064
INDEX 00 04:15:33
FILE "05 - We Tell You This.flac" WAVE
INDEX 01 00:00:00
TRACK 06 AUDIO
TITLE "Cry Free"
ISRC GBEKZ0400195
REM REPLAYGAIN_TRACK_GAIN -4.95 dB
REM REPLAYGAIN_TRACK_PEAK 0.966095
INDEX 00 06:59:28
FILE "06 - Cry Free.flac" WAVE
INDEX 01 00:00:00
TRACK 07 AUDIO
TITLE "Joyce Country"
ISRC GBEKZ0400198
REM REPLAYGAIN_TRACK_GAIN -4.48 dB
REM REPLAYGAIN_TRACK_PEAK 0.966034
INDEX 00 07:48:39
FILE "07 - Joyce Country.flac" WAVE
INDEX 01 00:00:00
 
Отчет CUETools
[CUETools log; Date: 26.04.2016 17:56:49; Version: 2.1.5]
[CTDB TOCID: p6u1ZV3YiHIe6ST3fzuiYKBHACA-] found.
Track | CTDB Status
1 | (4/4) Accurately ripped
2 | (4/4) Accurately ripped
3 | (4/4) Accurately ripped
4 | (4/4) Accurately ripped
5 | (4/4) Accurately ripped
6 | (4/4) Accurately ripped
7 | (4/4) Accurately ripped
[AccurateRip ID: 000b865b-00453c42-510a2107] found.
Track [ CRC | V2 ] Status
01 [14b14949|dcd875e9] (0+2/2) Accurately ripped
02 [e085de51|35dbd34c] (0+2/2) Accurately ripped
03 [ae56dd87|14221578] (0+2/2) Accurately ripped
04 [278d546e|0c0e3aae] (0+2/2) Accurately ripped
05 [c0fba5d4|3d8b3eb6] (0+2/2) Accurately ripped
06 [51644072|831b00b7] (0+2/2) Accurately ripped
07 [936873ad|26e3d7e3] (0+2/2) Accurately ripped
Track Peak [ CRC32 ] [W/O NULL]
-- 96,6 [21B49448] [56DDBB5E]
01 96,6 [7FA23A0A] [46E3B904]
02 96,6 [856F8B4A] [B26E7393]
03 96,6 [3C193786] [4705FDB1]
04 96,6 [6257C003] [BECC95E2]
05 96,6 [FD3A781D] [3E1BBE6E]
06 96,6 [0AA4D723] [54469E91]
07 96,6 [0557BC33] [43A031EE]
 
Review by Chris May
This is a really thrilling, wonderful and profoundly enjoyable album—a trailblazing and stirring adventure in world music and world jazz recorded long before either term was invented.
Made in '69, in London, by Indian guitarist Amancio D'Silva and four of Britain's finest jazzmen, it serves up a chili-rich dish of hard bop, Indian raga, ska, early electric Miles, a little rembetika, Link Wray and Willis Gator Jackson... and Ennio Morricone spaghetti western scores! Reissued as part of Universal's Impressed-Repressed series of long unavailable British jazz masterpieces, the groove today is as irresistible and out of it as it must have sounded three decades ago.
In the late '60s, the British jazz scene was still suffering from the crippling belief that the best jazz could only come out of the USA and that anything made in Britain must, by definition, be derivative and inferior. It was the Indo-jazz movement of the time, spearheaded by London-based Indian composer/arranger John Mayer and West Indian saxman Joe Harriott and their Indo-Jazz Fusions 1 and 2 albums, together with D'Silva, which as much as anything helped overturn this inferiority complex.
More visceral—and more gone—than Mayer's sometimes overly academic and self-conscious multi-cultural constructs, the music on Integration also has little to do with the blissed out sitar sounds then popular within the counter culture. The first three tracks in particular, with saxophonist Don Rendell sharing the solo spotlight with D'Silva, are much more fiery, rough edged and incantatory, closer to the sort of music you'd hear in a Rajastan town square on market day. D'Silva's hard-picked and percussive style, wholly original and uncategorisable, performed throughout the album on electric guitar, references classical sitar and primal Link Wray with a little bit of bouzouki thrown in for good measure, while the horn arrangements evoke both the Skatalites and the Jazz Messengers. Rendell, on tenor for the majestic "Ganges" and "Jaipur," affirms his position as one of the most exciting hard bop saxmen and reveals some gloriously raucous ska and R&B roots.
Rendell drops out for the last four tracks, which foreground D'Silva and Carr and are more measured and reflective than their predecessors—but no less magical. Carr, in '69 almost obsessive in his devotion to Miles (and later, of course, his distinguished biographer), is practically right up there with his hero's In A Silent Way initiatives, and with D'Silva conjures some top ranking early electric Miles. On the closing "Joyce Country," the duo mix Carr's Spanish tinge with D'Silva's "Rumble" moments to evoke Ennio Morricone's spaghetti western soundtracks.
Unforced in its sweeping cultural inclusiveness, and utterly convincing in its execution, Integration is a stone delight from start to finish.
21:11
317
Нет комментариев. Ваш будет первым!