Поиск

(Latin Jazz, Fusion) [CD] Airto Moreira - Fingers - 1973 (2002 Japan Edition), FLAC (tracks+.cue), lossless

(Latin Jazz, Fusion) [CD] Airto Moreira - Fingers - 1973 (2002 Japan Edition), FLAC (tracks+.cue), lossless
Треклист:
Airto Moreira - Fingers
Жанр: Latin Jazz, Fusion
Носитель: CD
Страна-производитель диска (релиза): Япония
Год издания: 2002
Издатель (лейбл): CTI/P.J.L./King
Номер по каталогу: MTCJ-4001
Страна исполнителя (группы): США
Аудиокодек: FLAC (*.flac)
Тип рипа: tracks+.cue
Битрейт аудио: lossless
Продолжительность: 35:26
Источник (релизер): measet (what)
Наличие сканов в содержимом раздачи: да
Треклист:
01. Fingers (El Rada) (Rada-Uzeta) - 4:33
02. Romance of Death (Fattoruso) - 5:36
03. Merry-Go-Round (Moreira) - 2:47
04. Wind Chant (Fattoruso) - 5:51
05. Parana (Fattoruso) - 6:04
06. San Francisco River (Purim) - 4:11
07. Tombo in 7/4 (Moreira) - 6:24
Состав:
Airto Moreira - percussion, drums, vocals
Flora Purim - percussion, vocals
David Amaro - acoustic guitar, electric guitar, 12 string guitar
Hugo Fattoruso - keyboards, harmonica, vocals
Jorge Fattoruso - drums, vocals
Ringo Thielmann - bass, vocals
Recorded at Van Gelder Studios, Englewood Cliffs, NJ in April, 1973.
 
Лог создания рипа
Exact Audio Copy V1.1 from 23. June 2015
EAC extraction logfile from 25. March 2016, 16:02
Airto Moreira / Fingers
Used drive : HL-DT-STDVD+-RW GS30N Adapter: 1 ID: 0
Read mode : Secure
Utilize accurate stream : Yes
Defeat audio cache : Yes
Make use of C2 pointers : No
Read offset correction : 667
Overread into Lead-In and Lead-Out : No
Fill up missing offset samples with silence : Yes
Delete leading and trailing silent blocks : No
Null samples used in CRC calculations : Yes
Used interface : Native Win32 interface for Win NT & 2000
Gap handling : Appended to previous track
Used output format : User Defined Encoder
Selected bitrate : 1024 kBit/s
Quality : High
Add ID3 tag : No
Command line compressor : C:\Program Files (x86)\Exact Audio Copy\FLAC\FLAC.EXE
Additional command line options : -6 -V -T "ARTIST=%artist%" -T "TITLE=%title%" -T "ALBUM=%albumtitle%" -T "DATE=%year%" -T "TRACKNUMBER=%tracknr%" -T "GENRE=%genre%" -T "COMMENT=%comment%" -T "BAND=%albuminterpret%" -T "ALBUMARTIST=%albuminterpret%" -T "COMPOSER=%composer%" %haslyrics%--tag-from-file=LYRICS="%lyricsfile%"%haslyrics% -T "DISCNUMBER=%cdnumber%" -T "TOTALDISCS=%totalcds%" -T "TOTALTRACKS=%numtracks%" %hascover%--picture="%coverfile%"%hascover% %source% -o %dest%
TOC of the extracted CD
Track | Start | Length | Start sector | End sector
---------------------------------------------------------
1 | 0:00.00 | 4:33.37 | 0 | 20511
2 | 4:33.37 | 5:35.63 | 20512 | 45699
3 | 10:09.25 | 2:47.17 | 45700 | 58241
4 | 12:56.42 | 5:51.20 | 58242 | 84586
5 | 18:47.62 | 6:04.08 | 84587 | 111894
6 | 24:51.70 | 4:11.22 | 111895 | 130741
7 | 29:03.17 | 6:23.70 | 130742 | 159536
Track 1
Filename D:\music\Airto Moreira - Fingers\01. Airto Moreira - Fingers (El Rada).wav
Pre-gap length 0:00:02.00
Peak level 99.0 %
Extraction speed 2.9 X
Track quality 100.0 %
Test CRC 6CC3337D
Copy CRC 6CC3337D
Cannot be verified as accurate (confidence 2) [2BE48178], AccurateRip returned [1CFED039] (AR v2)
Copy OK
Track 2
Filename D:\music\Airto Moreira - Fingers\02. Airto Moreira - Romance Of Death.wav
Pre-gap length 0:00:02.55
Peak level 99.1 %
Extraction speed 3.4 X
Track quality 100.0 %
Test CRC CB1FE371
Copy CRC CB1FE371
Cannot be verified as accurate (confidence 2) [44C63269], AccurateRip returned [805BE38E] (AR v2)
Copy OK
Track 3
Filename D:\music\Airto Moreira - Fingers\03. Airto Moreira - Merry-Go-Round.wav
Pre-gap length 0:00:02.33
Peak level 99.0 %
Extraction speed 3.3 X
Track quality 100.0 %
Test CRC 6556B222
Copy CRC 6556B222
Cannot be verified as accurate (confidence 2) [AFBABEB0], AccurateRip returned [1CB5FD9B] (AR v2)
Copy OK
Track 4
Filename D:\music\Airto Moreira - Fingers\04. Airto Moreira - Wind Chant.wav
Pre-gap length 0:00:02.50
Peak level 99.1 %
Extraction speed 3.5 X
Track quality 99.9 %
Test CRC 5A9058F2
Copy CRC 5A9058F2
Cannot be verified as accurate (confidence 2) [7058EBE2], AccurateRip returned [D3453AD8] (AR v2)
Copy OK
Track 5
Filename D:\music\Airto Moreira - Fingers\05. Airto Moreira - Parana.wav
Pre-gap length 0:00:03.05
Peak level 99.1 %
Extraction speed 4.3 X
Track quality 100.0 %
Test CRC 7C785AE4
Copy CRC 7C785AE4
Cannot be verified as accurate (confidence 3) [A6A515C7], AccurateRip returned [8108AB4D] (AR v2)
Copy OK
Track 6
Filename D:\music\Airto Moreira - Fingers\06. Airto Moreira - San Francisco River.wav
Pre-gap length 0:00:03.10
Peak level 98.9 %
Extraction speed 3.7 X
Track quality 99.9 %
Test CRC 14F5FC37
Copy CRC 14F5FC37
Cannot be verified as accurate (confidence 2) [415B4061], AccurateRip returned [194478C8] (AR v2)
Copy OK
Track 7
Filename D:\music\Airto Moreira - Fingers\07. Airto Moreira - Tombo In 7,4.wav
Pre-gap length 0:00:03.22
Peak level 99.1 %
Extraction speed 5.0 X
Track quality 100.0 %
Test CRC 43347418
Copy CRC 43347418
Cannot be verified as accurate (confidence 2) [44C1F44F], AccurateRip returned [016FFEA1] (AR v2)
Copy OK
No tracks could be verified as accurate
You may have a different pressing from the one(s) in the database
No errors occurred
End of status report
---- CUETools DB Plugin V2.1.6
[CTDB TOCID: NYFhZST9zO5472VrylPD8oJUMIM-] found
Submit result: NYFhZST9zO5472VrylPD8oJUMIM- has been confirmed
Track | CTDB Status
1 | (3/5) Accurately ripped
2 | (3/5) Accurately ripped
3 | (3/5) Accurately ripped
4 | (3/5) Accurately ripped
5 | (3/5) Accurately ripped
6 | (3/5) Accurately ripped
7 | (3/5) Accurately ripped
==== Log checksum B16796529BB2293F02C5BCC6F3137A96CC37E1AE507A919726DFA0319CA50517 ====
 
Содержание индексной карты (.CUE)
REM GENRE Jazz
REM DATE 1973
REM DISCID 5D084F07
REM COMMENT "ExactAudioCopy v1.1"
CATALOG 4540957002192
PERFORMER "Airto Moreira"
TITLE "Fingers"
FILE "01 - Fingers (El Rada).wav" WAVE
TRACK 01 AUDIO
TITLE "Fingers (El Rada)"
PERFORMER "Airto Moreira"
INDEX 01 00:00:00
TRACK 02 AUDIO
TITLE "Romance of Death"
PERFORMER "Airto Moreira"
INDEX 00 04:30:57
FILE "02 - Romance of Death.wav" WAVE
INDEX 01 00:00:00
TRACK 03 AUDIO
TITLE "Merry-Go-Round"
PERFORMER "Airto Moreira"
INDEX 00 05:33:30
FILE "03 - Merry-Go-Round.wav" WAVE
INDEX 01 00:00:00
TRACK 04 AUDIO
TITLE "Wind Chant"
PERFORMER "Airto Moreira"
INDEX 00 02:44:42
FILE "04 - Wind Chant.wav" WAVE
INDEX 01 00:00:00
TRACK 05 AUDIO
TITLE "Parana"
PERFORMER "Airto Moreira"
INDEX 00 05:48:15
FILE "05 - Parana.wav" WAVE
INDEX 01 00:00:00
TRACK 06 AUDIO
TITLE "San Francisco River"
PERFORMER "Airto Moreira"
INDEX 00 06:00:73
FILE "06 - San Francisco River.wav" WAVE
INDEX 01 00:00:00
TRACK 07 AUDIO
TITLE "Tombo in 7/4"
PERFORMER "Airto Moreira"
INDEX 00 04:08:00
FILE "07 - Tombo in 7,4.wav" WAVE
INDEX 01 00:00:00
 
Отчет CUETools
[CUETools log; Date: 25.04.2016 0:24:15; Version: 2.1.5]
[CTDB TOCID: NYFhZST9zO5472VrylPD8oJUMIM-] found.
Track | CTDB Status
1 | (4/6) Accurately ripped
2 | (4/6) Accurately ripped
3 | (4/6) Accurately ripped
4 | (4/6) Accurately ripped
5 | (4/6) Accurately ripped
6 | (4/6) Accurately ripped
7 | (4/6) Accurately ripped
[AccurateRip ID: 0009538f-003868f8-5d084f07] found.
Track [ CRC | V2 ] Status
01 [a2815ac1|2be48178] (0+0/2) No match
02 [221205fa|44c63269] (0+0/2) No match
03 [4efd6c3a|afbabeb0] (0+0/2) No match
04 [0c86a78d|7058ebe2] (0+0/2) No match
05 [930c84e0|a6a515c7] (0+0/3) No match
06 [6f0bbc94|415b4061] (0+0/2) No match
07 [5038e4c5|44c1f44f] (0+0/2) No match
Offsetted by -6:
01 [560873ad] (0/2) No match
02 [66f385c8] (0/2) No match (V2 was not tested)
03 [a721c46a] (0/2) No match
04 [8cacec7b] (0/2) No match
05 [e41fee44] (0/3) No match
06 [d178d1c2] (0/2) No match
07 [49fabd23] (0/2) No match
Track Peak [ CRC32 ] [W/O NULL] [ LOG ]
-- 99,1 [43976E47] [4C9226E5]
01 99,0 [6CC3337D] [A1DED7C4] CRC32
02 99,1 [CB1FE371] [274EEA44] CRC32
03 99,0 [6556B222] [260FFFB8] CRC32
04 99,1 [5A9058F2] [238EB8CB] CRC32
05 99,1 [7C785AE4] [A1C03B38] CRC32
06 98,9 [14F5FC37] [0CBB46EA] CRC32
07 99,1 [43347418] [89FE1F1E] CRC32
 
AllMusic Review by Alex Henderson
The 1970s were banner years for Airto Moreira -- not only because of his association with Chick Corea's Return to Forever and his work on wife Flora Purim's Milestone dates, but also, because of the generally superb work he did under Creed Taylor's supervision at CTI from 1972-74. One of the five-star gems that the Brazilian percussionist recorded for CTI was Fingers, which employs Purim on percussion and vocals, David Amaro on guitar, Hugo Fattoruso on keyboards and harmonica, Jorge Fattoruso on drums and Ringo Thielmann on electric bass. Produced by Taylor and recorded at Rudy Van Gelder's famous New Jersey studio, this LP demonstrates just how exciting and creative 1970s fusion could be. When Moreira and his colleagues blend jazz with Brazilian music, rock and funk on such cuts as "Wind Chant," "Tombo in 7/4" and "Romance of Death," the results are consistently enriching. Fingers is an album to savor.
(Crossover Jazz / Latin Jazz / World Fusion) Airto Moreira - Fingers (CTI Records 40th Anniversary Edition) - 1973 / 2011, FLAC (tracks+.cue), lossless
21:11
608
Нет комментариев. Ваш будет первым!