Вы используете незарегистрированную версию компонента "Вкладки"!

Поиск

(Post Bop) Sun Ra - St. Louis Blues. Solo Piano - ? (1978), FLAC (tracks+.cue) lossless

Треклист:
Sun Ra / St. Louis Blues. Solo Piano
Жанр: Post Bop
Страна-производитель диска: Италия
Год издания диска: ? (1978)
Издатель (лейбл): Improvising Artists Inc.
Номер по каталогу: IAI 37.38.58
Страна: Сатурн
Аудио кодек: FLAC (*.flac)
Тип рипа: tracks+.cue
Битрейт аудио: lossless
Продолжительность: 40:36
Источник (релизер): вот.сиди (Chr15T0ph3r)
Наличие сканов в содержимом раздачи: нет
Треклист:
1. OHOSNISIXAEHT - Sun Ra 5:50
2. ST. LOUIS BLUES - W.C. Handy 5:00
3. THREE LITTLE WORDS - Bert Kalmar, Harry Ruby 5:40
4. HONEYSUCKLE ROSE - Fats Waller, Andy Razaf 3:20
5. SKY AND SUN - Sun Ra 6:05
6. I AM WE ARE I - Sun Ra 6:15
7. THOUGHTS ON THOTH - Sun Ra 6:27
Recorded on July 3, 1977 at Axis-in-Soho, New York City.
 
Лог создания рипа
EAC extraction logfile from 27. January 2007, 18:09 for CD
Sun Ra / St. Louis Blues
Used drive : SAMSUNG CD-R/RW SW-248F Adapter: 1 ID: 0
Read mode : Secure with NO C2, accurate stream, disable cache
Read offset correction : 97
Overread into Lead-In and Lead-Out : No
Used output format : C:\Program Files\FLAC\FLAC.exe (User Defined Encoder)
128 kBit/s
Additional command line options : -V -8 -T "artist=%a" -T "title=%t" -T "album=%g" -T "date=%y" -T "tracknumber=%n" -T "genre=%m" %s
Other options :
Fill up missing offset samples with silence : Yes
Delete leading and trailing silent blocks : No
Native Win32 interface for Win NT & 2000
Track 1
Filename E:\Downloads\01-Ohosnixaeht.wav
Pre-gap length 0:00:02.33
Peak level 93.1 %
Track quality 100.0 %
Test CRC 45F26AD2
Copy CRC 45F26AD2
Copy OK
Track 2
Filename E:\Downloads\02-St. Louis Blues.wav
Peak level 95.6 %
Track quality 100.0 %
Test CRC 34127503
Copy CRC 34127503
Copy OK
Track 3
Filename E:\Downloads\03-Three Little Words.wav
Peak level 87.5 %
Track quality 100.0 %
Test CRC 6C4E0807
Copy CRC 6C4E0807
Copy OK
Track 4
Filename E:\Downloads\04-Honeysuckle Rose.wav
Peak level 89.2 %
Track quality 100.0 %
Test CRC 02AC5D62
Copy CRC 02AC5D62
Copy OK
Track 5
Filename E:\Downloads\05-Sky and Sun.wav
Peak level 98.6 %
Track quality 100.0 %
Test CRC D49EF0E7
Copy CRC D49EF0E7
Copy OK
Track 6
Filename E:\Downloads\06-I Am We Are.wav
Peak level 87.2 %
Track quality 99.9 %
Test CRC 94C32E35
Copy CRC 94C32E35
Copy OK
Track 7
Filename E:\Downloads\07-Thoughts on Thoth.wav
Peak level 89.0 %
Track quality 100.0 %
Test CRC 5C03F7E2
Copy CRC 5C03F7E2
Copy OK
No errors occured
End of status report
 
Содержание индексной карты (.CUE)
PERFORMER "Sun Ra"
TITLE "St. Louis Blues"
FILE "E:\Downloads\Sun Ra\St. Louis Blues FLAC\01-Ohosnixaeht.wav" WAVE
TRACK 01 AUDIO
TITLE "Ohosnixaeht"
PERFORMER "Sun Ra"
INDEX 01 00:00:00
FILE "E:\Downloads\Sun Ra\St. Louis Blues FLAC\02-St. Louis Blues.wav" WAVE
TRACK 02 AUDIO
TITLE "St. Louis Blues"
PERFORMER "Sun Ra"
INDEX 01 00:00:00
FILE "E:\Downloads\Sun Ra\St. Louis Blues FLAC\03-Three Little Words.wav" WAVE
TRACK 03 AUDIO
TITLE "Three Little Words"
PERFORMER "Sun Ra"
INDEX 01 00:00:00
FILE "E:\Downloads\Sun Ra\St. Louis Blues FLAC\04-Honeysuckle Rose.wav" WAVE
TRACK 04 AUDIO
TITLE "Honeysuckle Rose"
PERFORMER "Sun Ra"
INDEX 01 00:00:00
FILE "E:\Downloads\Sun Ra\St. Louis Blues FLAC\05-Sky and Sun.wav" WAVE
TRACK 05 AUDIO
TITLE "Sky and Sun"
PERFORMER "Sun Ra"
INDEX 01 00:00:00
FILE "E:\Downloads\Sun Ra\St. Louis Blues FLAC\06-I Am We Are.wav" WAVE
TRACK 06 AUDIO
TITLE "I Am We Are"
PERFORMER "Sun Ra"
INDEX 01 00:00:00
FILE "E:\Downloads\Sun Ra\St. Louis Blues FLAC\07-Thoughts on Thoth.wav" WAVE
TRACK 07 AUDIO
TITLE "Thoughts on Thoth"
PERFORMER "Sun Ra"
INDEX 01 00:00:00
 
Лог проверки качества
AUDIOCHECKER v2.0 beta (build 457) - by Dester - opdester@freemail.hu
~~~~~~~~~~~~~~~~~~~~~~~~~~~~~~~~~~
-=== DO NOT EDIT THIS FILE! ===-
Path: ...\Sun Ra - St. Louis Blues (Solo Piano) (flac)
1 -=- 01 - Ohosnixaeht.flac -=- CDDA (100%)
2 -=- 02 - St. Louis Blues.flac -=- CDDA (100%)
3 -=- 03 - Three Little Words.flac -=- CDDA (100%)
4 -=- 04 - Honeysuckle Rose.flac -=- CDDA (100%)
5 -=- 05 - Sky and Sun.flac -=- CDDA (100%)
6 -=- 06 - I am We are I.flac -=- CDDA (100%)
7 -=- 07 - Thoughts on Thoth.flac -=- CDDA (100%)
Summary 100,00% CDDA
78664884
 
Состав
Sun Ra, piano
По всем вопросам пишите личное сообщение пользователю M0p94ok.
12:17
326
Нет комментариев. Ваш будет первым!