Вы используете незарегистрированную версию компонента "Вкладки"!

Поиск

(Free Jazz) Sun Ra - Some Blues But Not The Kind That's Blue - 2008 (1973-78), FLAC (tracks+.cue) lossless

(Free Jazz) Sun Ra - Some Blues But Not The Kind That's Blue - 2008 (1973-78), FLAC (tracks+.cue) lossless
Треклист:
Sun Ra / Some Blues But Not The Kind That's Blue
Жанр: Free Jazz
Страна-производитель диска: США
Год издания диска: 2008 (1973-78)
Издатель (лейбл): Atavistic
Номер по каталогу: UMS265CD-X
Страна: Сатурн, США
Аудио кодек: FLAC (*.flac)
Тип рипа: tracks+.cue
Битрейт аудио: lossless
Продолжительность: 1:11:51
Источник (релизер): вот.сиди (hockeyskank)
Наличие сканов в содержимом раздачи: нет
Треклист:
1 Some Blues But Not The Kind Thats Blue (Ra) 8:15
2 I'll Get By (Ahlert, Turk) 7:18
3 My Favorite Things (Rodgers-Hammerstein) 10:01
4 Untitled (Ra) 7:06
5 Nature Boy (Ahbez) 8:52
6 Tenderly (Morrison, Lawrence, Gross) 7:30
7 Black Magic (Arlen, Mercer) 8:38
8 I'll Get By [Alternate Take] (Ahlert, Turk) 7:24
9 I'll Get By [Alternate Take] (Ahlert, Turk) 6:42
1-3, 5-7, originally released on Saturn LP 101477, 1978. 4, 8, 9, previously unreleased.
These recordings are taken from the Sun Ra/El Saturn Collection in the Creative Audio Archive, released by permission of Experimental Sound Studio, Chicago, in collaboration with El Saturn/Adam Abraham.
1-7 Recorded October 14, 1977, Variety Recording Studio, NY. 8-9 Recorded May 3, 1973, Philadelphia.
Transferred from the master tapes at Airwave Studio, Chicago. Remastered at Experimental Sound Studio, Chicago.
 
Лог создания рипа
Exact Audio Copy V0.99 prebeta 4 from 23. January 2008
EAC extraction logfile from 5. January 2009, 14:09
Sun Ra / Some Blues But Not The Kind Thats Blue
Used drive : TSSTcorpDVD+-RW TS-H653F Adapter: 0 ID: 1
Read mode : Secure
Utilize accurate stream : Yes
Defeat audio cache : Yes
Make use of C2 pointers : No
Read offset correction : 6
Overread into Lead-In and Lead-Out : No
Fill up missing offset samples with silence : Yes
Delete leading and trailing silent blocks : No
Null samples used in CRC calculations : Yes
Used interface : Native Win32 interface for Win NT & 2000
Gap handling : Appended to previous track
Used output format : User Defined Encoder
Selected bitrate : 128 kBit/s
Quality : High
Add ID3 tag : No
Command line compressor : C:\Program Files\FLAC\flac.exe
Additional command line options : -V -8 -T "artist=%a" -T "title=%t" -T "album=%g" -T "date=%y" -T "tracknumber=%n" -T "genre=%m" %s
TOC of the extracted CD
Track | Start | Length | Start sector | End sector
---------------------------------------------------------
1 | 0:00.00 | 8:15.08 | 0 | 37132
2 | 8:15.08 | 7:18.68 | 37133 | 70050
3 | 15:34.01 | 10:01.62 | 70051 | 115187
4 | 25:35.63 | 7:06.00 | 115188 | 147137
5 | 32:41.63 | 8:52.70 | 147138 | 187107
6 | 41:34.58 | 7:30.16 | 187108 | 220873
7 | 49:04.74 | 8:38.60 | 220874 | 259783
8 | 57:43.59 | 7:24.29 | 259784 | 293112
9 | 65:08.13 | 6:42.46 | 293113 | 323308
Track 1
Filename C:\Users\Antoine\Music\Ma musique\Musique d'Antoine\FLAC\Sun Ra - Some Blues But Not The Kind That's Blue\01 - Some Blues But Not The Kind Thats Blue.wav
Pre-gap length 0:00:02.00
Peak level 97.0 %
Track quality 99.9 %
Test CRC 86900A5C
Copy CRC 86900A5C
Copy OK
Track 2
Filename C:\Users\Antoine\Music\Ma musique\Musique d'Antoine\FLAC\Sun Ra - Some Blues But Not The Kind That's Blue\02 - I'll Get By.wav
Pre-gap length 0:00:03.00
Peak level 92.4 %
Track quality 100.0 %
Test CRC 1F4C1AB1
Copy CRC 1F4C1AB1
Copy OK
Track 3
Filename C:\Users\Antoine\Music\Ma musique\Musique d'Antoine\FLAC\Sun Ra - Some Blues But Not The Kind That's Blue\03 - My Favorite Things.wav
Pre-gap length 0:00:02.00
Peak level 84.7 %
Track quality 100.0 %
Test CRC 97C97231
Copy CRC 97C97231
Copy OK
Track 4
Filename C:\Users\Antoine\Music\Ma musique\Musique d'Antoine\FLAC\Sun Ra - Some Blues But Not The Kind That's Blue\04 - Untitled.wav
Pre-gap length 0:00:02.00
Peak level 97.7 %
Track quality 99.9 %
Test CRC 3C6933DD
Copy CRC 3C6933DD
Copy OK
Track 5
Filename C:\Users\Antoine\Music\Ma musique\Musique d'Antoine\FLAC\Sun Ra - Some Blues But Not The Kind That's Blue\05 - Nature Boy.wav
Pre-gap length 0:00:02.00
Peak level 84.0 %
Track quality 99.9 %
Test CRC C11B41BB
Copy CRC C11B41BB
Copy OK
Track 6
Filename C:\Users\Antoine\Music\Ma musique\Musique d'Antoine\FLAC\Sun Ra - Some Blues But Not The Kind That's Blue\06 - Tenderly.wav
Pre-gap length 0:00:02.00
Peak level 95.3 %
Track quality 100.0 %
Test CRC 89F92AED
Copy CRC 89F92AED
Copy OK
Track 7
Filename C:\Users\Antoine\Music\Ma musique\Musique d'Antoine\FLAC\Sun Ra - Some Blues But Not The Kind That's Blue\07 - Black Magic.wav
Pre-gap length 0:00:02.00
Peak level 97.4 %
Track quality 100.0 %
Test CRC 74228D98
Copy CRC 74228D98
Copy OK
Track 8
Filename C:\Users\Antoine\Music\Ma musique\Musique d'Antoine\FLAC\Sun Ra - Some Blues But Not The Kind That's Blue\08 - I'll Get By.wav
Pre-gap length 0:00:05.00
Peak level 99.1 %
Track quality 100.0 %
Test CRC 5E272ADE
Copy CRC 5E272ADE
Copy OK
Track 9
Filename C:\Users\Antoine\Music\Ma musique\Musique d'Antoine\FLAC\Sun Ra - Some Blues But Not The Kind That's Blue\09 - I'll Get By.wav
Pre-gap length 0:00:02.00
Peak level 97.7 %
Track quality 100.0 %
Test CRC 5C78041A
Copy CRC 5C78041A
Copy OK
No errors occurred
End of status report
 
Содержание индексной карты (.CUE)
REM GENRE Jazz
REM DATE 1978
REM DISCID 9410D609
REM COMMENT "ExactAudioCopy v0.99pb4"
PERFORMER "Sun Ra"
TITLE "Some Blues But Not The Kind Thats Blue"
FILE "01 - Some Blues But Not The Kind Thats Blue.wav" WAVE
TRACK 01 AUDIO
TITLE "Some Blues But Not The Kind Thats Blue"
PERFORMER "Sun Ra"
INDEX 01 00:00:00
TRACK 02 AUDIO
TITLE "I'll Get By"
PERFORMER "Sun Ra"
INDEX 00 08:12:08
FILE "02 - I'll Get By.wav" WAVE
INDEX 01 00:00:00
TRACK 03 AUDIO
TITLE "My Favorite Things"
PERFORMER "Sun Ra"
INDEX 00 07:16:68
FILE "03 - My Favorite Things.wav" WAVE
INDEX 01 00:00:00
TRACK 04 AUDIO
TITLE "Untitled"
PERFORMER "Sun Ra"
INDEX 00 09:59:62
FILE "04 - Untitled.wav" WAVE
INDEX 01 00:00:00
TRACK 05 AUDIO
TITLE "Nature Boy"
PERFORMER "Sun Ra"
INDEX 00 07:04:00
FILE "05 - Nature Boy.wav" WAVE
INDEX 01 00:00:00
TRACK 06 AUDIO
TITLE "Tenderly"
PERFORMER "Sun Ra"
INDEX 00 08:50:70
FILE "06 - Tenderly.wav" WAVE
INDEX 01 00:00:00
TRACK 07 AUDIO
TITLE "Black Magic"
PERFORMER "Sun Ra"
INDEX 00 07:28:16
FILE "07 - Black Magic.wav" WAVE
INDEX 01 00:00:00
TRACK 08 AUDIO
TITLE "I'll Get By"
PERFORMER "Sun Ra"
INDEX 00 08:33:60
FILE "08 - I'll Get By.wav" WAVE
INDEX 01 00:00:00
TRACK 09 AUDIO
TITLE "I'll Get By "
PERFORMER "Sun Ra"
INDEX 00 07:22:29
FILE "09 - I'll Get By.wav" WAVE
INDEX 01 00:00:00
 
Лог проверки качества
AUDIOCHECKER v2.0 beta (build 457) - by Dester - opdester@freemail.hu
~~~~~~~~~~~~~~~~~~~~~~~~~~~~~~~~~~
-=== DO NOT EDIT THIS FILE! ===-
Path: ...\Sun Ra - Some Blues But Not The Kind Thats Blue (1978) [FLAC]
1 -=- 01 - Some Blues But Not The Kind Thats Blue.flac -=- CDDA (100%)
2 -=- 02 - I'll Get By.flac -=- CDDA (100%)
3 -=- 03 - My Favorite Things.flac -=- CDDA (100%)
4 -=- 04 - Untitled.flac -=- CDDA (100%)
5 -=- 05 - Nature Boy.flac -=- CDDA (100%)
6 -=- 06 - Tenderly.flac -=- CDDA (100%)
7 -=- 07 - Black Magic.flac -=- CDDA (100%)
8 -=- 08 - I'll Get By.flac -=- CDDA (99%)
9 -=- 09 - I'll Get By.flac -=- CDDA (100%)
Summary 99,89% CDDA
176242276
 
Состав
Richard Williams, bass (1)
Ronnie Boykins, bass (8, 9)
James Jacson, bassoon (1 - 7)
Eloe Omoe, clarinet (1 - 7)
Atakatune , congas (1 - 7)
Luqman Ali, drums (1 - 7)
Akh Tal Ebah, trumpet (1 - 7), flugelhorn (8),
Danny Davis, flute (1 - 7)
James Jacson, flute (1 - 7)
Sun Ra, piano (1 - 7), organ (8, 9)
John Gilmore, saxophone (1 - 7, 9)
Marshall Allen, saxophone (1 - 7)
Any questions -> support@pro-jazz.com. По всем вопросам пишите -> support@pro-jazz.com
12:40
250
Нет комментариев. Ваш будет первым!