Поиск

(Post-Bop, Soul-Jazz, Jazz-Funk) [CD] Azar Lawrence - People Moving (1976) - 2014 {UCCO-90361}, FLAC (tracks+.cue), lossless

(Post-Bop, Soul-Jazz, Jazz-Funk) [CD] Azar Lawrence - People Moving (1976) - 2014 {UCCO-90361}, FLAC (tracks+.cue), lossless
Azar Lawrence - People Moving (1976) Жанр: Post-Bop, Soul-Jazz, Jazz-Funk
Носитель: CD
Страна-производитель диска: Japan
Год издания: 2014
Издатель (лейбл): Prestige/Concord/Universal Music Japan
Номер по каталогу: UCCO-90361
Аудиокодек: FLAC (*.flac)
Тип рипа: tracks+.cue
Битрейт аудио: lossless
Продолжительность: 38:36
Rip by ruskaval
Наличие сканов в содержимом раздачи: да
Треклист:
01. Theme For A New Day (5:22)
02. The Awakening (6:47)
03. Kickin' Back (6:45)
04. People Moving (5:50)
05. Can't Hide Love (4:19)
06. Canticle For The Universe (4:55)
07. Gratitude (4:39)
 
 
Лог создания рипа
Exact Audio Copy V1.1 from 23. June 2015
EAC extraction logfile from 9. August 2015, 14:27
Azar Lawrence / People Moving
Used drive : ATAPI iHAS124 B Adapter: 2 ID: 0
Read mode : Secure
Utilize accurate stream : Yes
Defeat audio cache : Yes
Make use of C2 pointers : No
Read offset correction : 6
Overread into Lead-In and Lead-Out : No
Fill up missing offset samples with silence : Yes
Delete leading and trailing silent blocks : No
Null samples used in CRC calculations : Yes
Used interface : Installed external ASPI interface
Gap handling : Appended to previous track
Used output format : User Defined Encoder
Selected bitrate : 1024 kBit/s
Quality : High
Add ID3 tag : No
Command line compressor : C:\Program Files (x86)\FLAC Frontend\tools\flac.exe
Additional command line options : -8 -V -T "ARTIST=%artist%" -T "TITLE=%title%" -T "ALBUM=%albumtitle%" -T "DATE=%year%" -T "TRACKNUMBER=%tracknr%" -T "TOTALTRACKS=%numtracks%" -T "GENRE=%genre%" -T "ALBUMARTIST=%albumartist%" -T "ALBUM ARTIST=%albumartist%" -T "COMMENT=EAC Secure Mode, Test & Copy, AccurateRip, FLAC -8" %source%
TOC of the extracted CD
Track | Start | Length | Start sector | End sector
---------------------------------------------------------
1 | 0:00.00 | 5:21.38 | 0 | 24112
2 | 5:21.38 | 6:46.48 | 24113 | 54610
3 | 12:08.11 | 6:45.14 | 54611 | 84999
4 | 18:53.25 | 5:50.16 | 85000 | 111265
5 | 24:43.41 | 4:18.39 | 111266 | 130654
6 | 29:02.05 | 4:54.62 | 130655 | 152766
7 | 33:56.67 | 4:39.32 | 152767 | 173723
Track 1
Filename M:\_EAC\Azar Lawrence - People Moving (1976) [FLAC] {2014 Japan Rare Groove Funk Best Collection 1000}\01 - Theme For A New Day.wav
Pre-gap length 0:00:02.00
Peak level 98.9 %
Extraction speed 3.6 X
Track quality 100.0 %
Test CRC 4EA312A5
Copy CRC 4EA312A5
Cannot be verified as accurate (confidence 2) [76716634], AccurateRip returned [042F65DB] (AR v2)
Copy OK
Track 2
Filename M:\_EAC\Azar Lawrence - People Moving (1976) [FLAC] {2014 Japan Rare Groove Funk Best Collection 1000}\02 - The Awakening.wav
Pre-gap length 0:00:02.12
Peak level 98.9 %
Extraction speed 4.3 X
Track quality 100.0 %
Test CRC 0268C6A8
Copy CRC 0268C6A8
Cannot be verified as accurate (confidence 2) [133E76F9], AccurateRip returned [2E9C6E82] (AR v2)
Copy OK
Track 3
Filename M:\_EAC\Azar Lawrence - People Moving (1976) [FLAC] {2014 Japan Rare Groove Funk Best Collection 1000}\03 - Kickin' Back.wav
Pre-gap length 0:00:01.44
Peak level 99.1 %
Extraction speed 4.9 X
Track quality 100.0 %
Test CRC 43256583
Copy CRC 43256583
Cannot be verified as accurate (confidence 2) [698E031E], AccurateRip returned [0020937C] (AR v2)
Copy OK
Track 4
Filename M:\_EAC\Azar Lawrence - People Moving (1976) [FLAC] {2014 Japan Rare Groove Funk Best Collection 1000}\04 - People Moving.wav
Pre-gap length 0:00:02.39
Peak level 98.8 %
Extraction speed 5.2 X
Track quality 100.0 %
Test CRC 03045D21
Copy CRC 03045D21
Cannot be verified as accurate (confidence 2) [14ADFAD5], AccurateRip returned [BCD02E8E] (AR v2)
Copy OK
Track 5
Filename M:\_EAC\Azar Lawrence - People Moving (1976) [FLAC] {2014 Japan Rare Groove Funk Best Collection 1000}\05 - Can't Hide Love.wav
Pre-gap length 0:00:02.57
Peak level 98.9 %
Extraction speed 5.4 X
Track quality 100.0 %
Test CRC 4A86AD13
Copy CRC 4A86AD13
Cannot be verified as accurate (confidence 2) [24FF50C6], AccurateRip returned [426E6AF5] (AR v2)
Copy OK
Track 6
Filename M:\_EAC\Azar Lawrence - People Moving (1976) [FLAC] {2014 Japan Rare Groove Funk Best Collection 1000}\06 - Canticle For The Universe.wav
Pre-gap length 0:00:01.57
Peak level 98.8 %
Extraction speed 4.7 X
Track quality 99.9 %
Test CRC AEA52A84
Copy CRC AEA52A84
Cannot be verified as accurate (confidence 2) [39D4627E], AccurateRip returned [652B0268] (AR v2)
Copy OK
Track 7
Filename M:\_EAC\Azar Lawrence - People Moving (1976) [FLAC] {2014 Japan Rare Groove Funk Best Collection 1000}\07 - Gratitude.wav
Pre-gap length 0:00:01.20
Peak level 98.8 %
Extraction speed 5.9 X
Track quality 100.0 %
Test CRC 188B2364
Copy CRC 188B2364
Cannot be verified as accurate (confidence 2) [2B51F8E2], AccurateRip returned [17856E58] (AR v2)
Copy OK
No tracks could be verified as accurate
You may have a different pressing from the one(s) in the database
No errors occurred
End of status report
==== Log checksum 0042A9D6BC63585AB76B556DFED0D83E325FD62C11886CE3850EA9BE969B9EF5 ====
 
Содержание индексной карты (.CUE)
REM GENRE Jazz
REM DATE 1976
REM DISCID 4D090C07
REM COMMENT "ExactAudioCopy v1.1"
PERFORMER "Azar Lawrence"
TITLE "People Moving"
FILE "01 - Theme For A New Day.wav" WAVE
TRACK 01 AUDIO
TITLE "Theme For A New Day"
PERFORMER "Azar Lawrence"
INDEX 01 00:00:00
TRACK 02 AUDIO
TITLE "The Awakening"
PERFORMER "Azar Lawrence"
INDEX 00 05:19:26
FILE "02 - The Awakening.wav" WAVE
INDEX 01 00:00:00
TRACK 03 AUDIO
TITLE "Kickin' Back"
PERFORMER "Azar Lawrence"
INDEX 00 06:45:04
FILE "03 - Kickin' Back.wav" WAVE
INDEX 01 00:00:00
TRACK 04 AUDIO
TITLE "People Moving"
PERFORMER "Azar Lawrence"
INDEX 00 06:42:50
FILE "04 - People Moving.wav" WAVE
INDEX 01 00:00:00
TRACK 05 AUDIO
TITLE "Can't Hide Love"
PERFORMER "Azar Lawrence"
INDEX 00 05:47:34
FILE "05 - Can't Hide Love.wav" WAVE
INDEX 01 00:00:00
TRACK 06 AUDIO
TITLE "Canticle For The Universe"
PERFORMER "Azar Lawrence"
INDEX 00 04:16:57
FILE "06 - Canticle For The Universe.wav" WAVE
INDEX 01 00:00:00
TRACK 07 AUDIO
TITLE "Gratitude"
PERFORMER "Azar Lawrence"
INDEX 00 04:53:42
FILE "07 - Gratitude.wav" WAVE
INDEX 01 00:00:00
19:58
316
Нет комментариев. Ваш будет первым!