Поиск

(Nu-Bossa, Brazilian Jazz, Latin, World) [CD] Vinicius Cantuaria (Vinicius Cantuária) - Samba Carioca (ft. Brad Mehldau, Bill Frisell, Paulo Braga) - 2010, FLAC (tracks+.cue), lossless

(Nu-Bossa, Brazilian Jazz, Latin, World) [CD] Vinicius Cantuaria (Vinicius Cantuária) - Samba Carioca (ft. Brad Mehldau, Bill Frisell, Paulo Braga) - 2010, FLAC (tracks+.cue), lossless
Треклист:
Vinicius Cantuária - Samba Carioca
Жанр: Nu-Bossa, Brazilian Jazz, Latin, World
Носитель: CD
Страна-производитель диска (релиза): France
Год издания: 2010
Издатель (лейбл): Naïve
Номер по каталогу: WN145181
Страна исполнителя (группы): Brazil
Аудиокодек: FLAC (*.flac)
Тип рипа: tracks+.cue
Битрейт аудио: lossless
Продолжительность: 41:06
Источник (релизер): what.cd (MRmarket)
Наличие сканов в содержимом раздачи: нет
Треклист:
01. Praia Grande (05:57)
02. Berlin (05:19)
03. Vagamente (02:52)
04. Inutil Paisagem (04:14)
05. Julinha De Botas (01:46)
06. Fugiu (03:35)
07. Orla (06:39)
08. Conversa Fiada (04:33)
09. So Focou Saudade (06:06)
 
Лог создания рипа
X Lossless Decoder version 20130127 (142.3)
XLD extraction logfile from 2013-02-28 19:53:28 -0500
Vinicius Cantuária / Samba Carioca
Used drive : MATSHITA DVD-R UJ-898 (revision HC10)
Media type : Pressed CD
Ripper mode : XLD Secure Ripper
Disable audio cache : OK for the drive with a cache less than 1375KiB
Make use of C2 pointers : NO
Read offset correction : 102
Max retry count : 20
Gap status : Analyzed, Appended (except HTOA)
TOC of the extracted CD
Track | Start | Length | Start sector | End sector
---------------------------------------------------------
1 | 00:00:00 | 05:57:07 | 0 | 26781
2 | 05:57:07 | 05:19:14 | 26782 | 50720
3 | 11:16:21 | 02:52:05 | 50721 | 63625
4 | 14:08:26 | 04:14:38 | 63626 | 82713
5 | 18:22:64 | 01:46:29 | 82714 | 90692
6 | 20:09:18 | 03:35:52 | 90693 | 106869
7 | 23:44:70 | 06:39:65 | 106870 | 136859
8 | 30:24:60 | 04:33:60 | 136860 | 157394
9 | 34:58:45 | 06:06:10 | 157395 | 184854
List of alternate offset correction values
# | Absolute | Relative | Confidence
------------------------------------------
1 | 150 | 48 | 4
2 | 132 | 30 | 2
AccurateRip Summary (DiscID: 000dbda4-00639453-6109a009)
Track 01 : OK (v2, confidence 2/6, with different offset)
Track 02 : OK (v2, confidence 2/6, with different offset)
Track 03 : OK (v2, confidence 2/6, with different offset)
Track 04 : OK (v2, confidence 2/6, with different offset)
Track 05 : OK (v2, confidence 2/6, with different offset)
Track 06 : OK (v2, confidence 2/6, with different offset)
Track 07 : OK (v2, confidence 2/6, with different offset)
Track 08 : OK (v2, confidence 2/6, with different offset)
Track 09 : OK (v2, confidence 2/6, with different offset)
->All tracks accurately ripped.
All Tracks
Album gain : -6.95 dB
Peak : 0.999847
Statistics
Read error : 0
Jitter error (maybe fixed) : 0
Retry sector count : 0
Damaged sector count : 0
Track 01
Filename : /Users/tippett/Music/Vinicius Cantuária - Samba Carioca (2011)/01 Praia Grande.flac
Pre-gap length : 00:02:00
Track gain : -4.65 dB
Peak : 0.999847
CRC32 hash (test run) : E5FF3F00
CRC32 hash : E5FF3F00
CRC32 hash (skip zero) : E43435FE
AccurateRip v1 signature : 5FCB7C9A
AccurateRip v2 signature : D08B5DA2 (0642BC02 w/correction)
->Accurately ripped with different offset (v2, confidence 2/6, offset +30)
Statistics
Read error : 0
Jitter error (maybe fixed) : 0
Retry sector count : 0
Damaged sector count : 0
Track 02
Filename : /Users/tippett/Music/Vinicius Cantuária - Samba Carioca (2011)/02 Berlin.flac
Track gain : -6.57 dB
Peak : 0.997314
CRC32 hash (test run) : 4CBBED12
CRC32 hash : 4CBBED12
CRC32 hash (skip zero) : AEF84C98
AccurateRip v1 signature : 08EE2EBE
AccurateRip v2 signature : 724CCF32 (EF8A074B w/correction)
->Accurately ripped with different offset (v2, confidence 2/6, offset +30)
Statistics
Read error : 0
Jitter error (maybe fixed) : 0
Retry sector count : 0
Damaged sector count : 0
Track 03
Filename : /Users/tippett/Music/Vinicius Cantuária - Samba Carioca (2011)/03 Vagamente.flac
Track gain : -5.90 dB
Peak : 0.999847
CRC32 hash (test run) : F87CDC10
CRC32 hash : F87CDC10
CRC32 hash (skip zero) : 3833F157
AccurateRip v1 signature : EF1B44DA
AccurateRip v2 signature : 51E6E62E (B9CD68F5 w/correction)
->Accurately ripped with different offset (v2, confidence 2/6, offset +30)
Statistics
Read error : 0
Jitter error (maybe fixed) : 0
Retry sector count : 0
Damaged sector count : 0
Track 04
Filename : /Users/tippett/Music/Vinicius Cantuária - Samba Carioca (2011)/04 Inutil Paisagem.flac
Track gain : -5.14 dB
Peak : 0.999847
CRC32 hash (test run) : AAB18960
CRC32 hash : AAB18960
CRC32 hash (skip zero) : 753D68A4
AccurateRip v1 signature : F152C54D
AccurateRip v2 signature : 99AC45E9 (A6FA2518 w/correction)
->Accurately ripped with different offset (v2, confidence 2/6, offset +30)
Statistics
Read error : 0
Jitter error (maybe fixed) : 0
Retry sector count : 0
Damaged sector count : 0
Track 05
Filename : /Users/tippett/Music/Vinicius Cantuária - Samba Carioca (2011)/05 Julinha de Botas.flac
Track gain : -4.91 dB
Peak : 0.999847
CRC32 hash (test run) : 80569A82
CRC32 hash : 80569A82
CRC32 hash (skip zero) : AD0F650E
AccurateRip v1 signature : 4741B6BF
AccurateRip v2 signature : 2C3D63BD (9F4CD629 w/correction)
->Accurately ripped with different offset (v2, confidence 2/6, offset +30)
Statistics
Read error : 0
Jitter error (maybe fixed) : 0
Retry sector count : 0
Damaged sector count : 0
Track 06
Filename : /Users/tippett/Music/Vinicius Cantuária - Samba Carioca (2011)/06 Fugiu.flac
Track gain : -6.94 dB
Peak : 0.999847
CRC32 hash (test run) : 00A06028
CRC32 hash : 00A06028
CRC32 hash (skip zero) : 36C0268D
AccurateRip v1 signature : 0BAC8438
AccurateRip v2 signature : 67393AFD (11B1E2AA w/correction)
->Accurately ripped with different offset (v2, confidence 2/6, offset +30)
Statistics
Read error : 0
Jitter error (maybe fixed) : 0
Retry sector count : 0
Damaged sector count : 0
Track 07
Filename : /Users/tippett/Music/Vinicius Cantuária - Samba Carioca (2011)/07 Orla.flac
Track gain : -7.54 dB
Peak : 0.999847
CRC32 hash (test run) : 2ED78A7B
CRC32 hash : 2ED78A7B
CRC32 hash (skip zero) : 2D6F137B
AccurateRip v1 signature : 4AFC7CE5
AccurateRip v2 signature : 82BAF411 (CEF151BD w/correction)
->Accurately ripped with different offset (v2, confidence 2/6, offset +30)
Statistics
Read error : 0
Jitter error (maybe fixed) : 0
Retry sector count : 0
Damaged sector count : 0
Track 08
Filename : /Users/tippett/Music/Vinicius Cantuária - Samba Carioca (2011)/08 Conversa Fiada.flac
Track gain : -7.60 dB
Peak : 0.999847
CRC32 hash (test run) : 89D1C03F
CRC32 hash : 89D1C03F
CRC32 hash (skip zero) : 5231628A
AccurateRip v1 signature : 6369E543
AccurateRip v2 signature : 76352A61 (1981040F w/correction)
->Accurately ripped with different offset (v2, confidence 2/6, offset +30)
Statistics
Read error : 0
Jitter error (maybe fixed) : 0
Retry sector count : 0
Damaged sector count : 0
Track 09
Filename : /Users/tippett/Music/Vinicius Cantuária - Samba Carioca (2011)/09 So Ficou Saudade.flac
Track gain : -8.14 dB
Peak : 0.999847
CRC32 hash (test run) : 85FA83F9
CRC32 hash : 85FA83F9
CRC32 hash (skip zero) : BB0CBAD0
AccurateRip v1 signature : 277713A7
AccurateRip v2 signature : 075A2EC3 (CDD61296 w/correction)
->Accurately ripped with different offset (v2, confidence 2/6, offset +30)
Statistics
Read error : 0
Jitter error (maybe fixed) : 0
Retry sector count : 0
Damaged sector count : 0
No errors occurred
End of status report
 
Содержание индексной карты (.CUE)
TITLE "Samba Carioca"
PERFORMER "Vinicius Cantuária"
REM GENRE "Latin"
REM DATE "2010"
REM DISCNUMBER 1
REM TOTALDISCS 1
REM DISCID 6109A009
REM REPLAYGAIN_ALBUM_GAIN -6.95 dB
REM REPLAYGAIN_ALBUM_PEAK 0.999847
FILE "01 Praia Grande.flac" WAVE
TRACK 01 AUDIO
TITLE "Praia Grande"
PERFORMER "Vinicius Cantuária"
SONGWRITER "Vinicius Cantuaria/Marcos Valle"
ISRC FR47Q0905120
REM REPLAYGAIN_TRACK_GAIN -4.65 dB
REM REPLAYGAIN_TRACK_PEAK 0.999847
INDEX 01 00:00:00
FILE "02 Berlin.flac" WAVE
TRACK 02 AUDIO
TITLE "Berlin"
PERFORMER "Vinicius Cantuária"
SONGWRITER "Vinicius Cantuaria"
ISRC FR47Q0905130
REM REPLAYGAIN_TRACK_GAIN -6.57 dB
REM REPLAYGAIN_TRACK_PEAK 0.997314
INDEX 01 00:00:00
FILE "03 Vagamente.flac" WAVE
TRACK 03 AUDIO
TITLE "Vagamente"
PERFORMER "Vinicius Cantuária"
SONGWRITER "Ronaldo Boscoli/Roberto Menescal"
ISRC FR47Q0905140
REM REPLAYGAIN_TRACK_GAIN -5.90 dB
REM REPLAYGAIN_TRACK_PEAK 0.999847
INDEX 01 00:00:00
FILE "04 Inutil Paisagem.flac" WAVE
TRACK 04 AUDIO
TITLE "Inutil Paisagem"
PERFORMER "Vinicius Cantuária"
SONGWRITER "Antônio Carlos Jobim/Aloysio de Oliveira"
ISRC FR47Q0905150
REM REPLAYGAIN_TRACK_GAIN -5.14 dB
REM REPLAYGAIN_TRACK_PEAK 0.999847
INDEX 01 00:00:00
FILE "05 Julinha de Botas.flac" WAVE
TRACK 05 AUDIO
TITLE "Julinha de Botas"
PERFORMER "Vinicius Cantuária"
SONGWRITER "Vinicius Cantuaria"
ISRC FR47Q0905160
REM REPLAYGAIN_TRACK_GAIN -4.91 dB
REM REPLAYGAIN_TRACK_PEAK 0.999847
INDEX 01 00:00:00
FILE "06 Fugiu.flac" WAVE
TRACK 06 AUDIO
TITLE "Fugiu"
PERFORMER "Vinicius Cantuária"
SONGWRITER "Arto Lindsay/Vinicius Cantuaria"
ISRC FR47Q0905170
REM REPLAYGAIN_TRACK_GAIN -6.94 dB
REM REPLAYGAIN_TRACK_PEAK 0.999847
INDEX 01 00:00:00
FILE "07 Orla.flac" WAVE
TRACK 07 AUDIO
TITLE "Orla"
PERFORMER "Vinicius Cantuária"
SONGWRITER "Vinicius Cantuaria/Dadi/Liminha/Marcos Valle"
ISRC FR47Q0905180
REM REPLAYGAIN_TRACK_GAIN -7.54 dB
REM REPLAYGAIN_TRACK_PEAK 0.999847
INDEX 01 00:00:00
FILE "08 Conversa Fiada.flac" WAVE
TRACK 08 AUDIO
TITLE "Conversa Fiada"
PERFORMER "Vinicius Cantuária"
SONGWRITER "Vinicius Cantuaria"
ISRC FR47Q0905190
REM REPLAYGAIN_TRACK_GAIN -7.60 dB
REM REPLAYGAIN_TRACK_PEAK 0.999847
INDEX 01 00:00:00
FILE "09 So Ficou Saudade.flac" WAVE
TRACK 09 AUDIO
TITLE "So Ficou Saudade"
PERFORMER "Vinicius Cantuária"
SONGWRITER "Vinicius Cantuaria/Paulo Sérgio Valle"
ISRC FR47Q0905200
REM REPLAYGAIN_TRACK_GAIN -8.14 dB
REM REPLAYGAIN_TRACK_PEAK 0.999847
INDEX 01 00:00:00
 
Лог проверки качества
Lossless Audio Checker 1.9.1 logfile from Friday 20 November 2015 01:04:18 PM
File: G:\torrents\Vinicius Cantuária - Samba Carioca (2010) [FLAC]\01 Praia Grande.flac
Result: LOSSLESS
File: G:\torrents\Vinicius Cantuária - Samba Carioca (2010) [FLAC]\02 Berlin.flac
Result: CUTOFF
File: G:\torrents\Vinicius Cantuária - Samba Carioca (2010) [FLAC]\03 Vagamente.flac
Result: LOSSLESS
File: G:\torrents\Vinicius Cantuária - Samba Carioca (2010) [FLAC]\04 Inutil Paisagem.flac
Result: LOSSLESS
File: G:\torrents\Vinicius Cantuária - Samba Carioca (2010) [FLAC]\05 Julinha de Botas.flac
Result: LOSSLESS
File: G:\torrents\Vinicius Cantuária - Samba Carioca (2010) [FLAC]\06 Fugiu.flac
Result: LOSSLESS
File: G:\torrents\Vinicius Cantuária - Samba Carioca (2010) [FLAC]\07 Orla.flac
Result: LOSSLESS
File: G:\torrents\Vinicius Cantuária - Samba Carioca (2010) [FLAC]\08 Conversa Fiada.flac
Result: LOSSLESS
File: G:\torrents\Vinicius Cantuária - Samba Carioca (2010) [FLAC]\09 So Ficou Saudade.flac
Result: FLAC Decoding Problems
Files checked: 9 | Lossless: 7 | Cutoff: 1 | Error: 1 | Elapsed time: 00:00:30.978
 
Состав
Vinicus Cantuária - guitar, voice, drums, keyboards, percussion
Brad Mehldau - piano
Marcos Valle - piano
Joao Donato - piano
Bill Frisell - guitar
Paulo Braga - drums
Luiz Alves - double bass
Liminha - bass electric
Dadi - guitar
Sidinho - percussion
Jesse Sadoc - flugelhorn
19:57
472
Нет комментариев. Ваш будет первым!