Поиск

(Post-Bop) (Rahsaan) Roland Kirk — Early Roots: The Bethlehem Years (1956) — 2001, FLAC (tracks+.cue), lossless

Треклист:
(Rahsaan) Roland Kirk — Early Roots: The Bethlehem Years (1956)
Жанр: Post-Bop
Год издания диска: 2001
Лейбл: Avenue Jazz
Номер по каталогу: RZ 76688
Аудиокодек: FLAC (*.flac)
Тип рипа: tracks+.cue
Битрейт аудио: lossless
Продолжительность: 29:23
Источник: вата
Сканов
Треклист:
01. Roland's Theme (2:52)
02. Slow Groove (6:52)
03. Stormy Weather (4:38)
04. The Nearness Of You (5:33)
05. A La Carte (2:23)
06. Easy Living (4:40)
07. Triple Threat (2:24)
Personnel:
Rahsaan Roland Kirk - stritch, tenor saxophone, manzello
James Madison - piano
Carl Pruitt - bass
Henry Duncan - drums
Rec.: November 9, 1956.
 
 
Лог создания рипа
X Lossless Decoder version 20100828 (120.6)
XLD extraction logfile from 2010-09-01 17:02:43 -0400
(Rahsaan) Roland Kirk / Early Roots: The Bethlehem Years
Used drive : MATSHITA DVD-R UJ-85J (revision FM0S)
Use cdparanoia mode : YES (CDParanoia III 10.2 engine)
Disable audio cache : OK for the drive with cache less than 2750KB
Make use of C2 pointers : NO
Read offset correction : 102
Max retry count : 100
Gap status : Analyzed, Appended
TOC of the extracted CD
Track | Start | Length | Start sector | End sector
---------------------------------------------------------
1 | 00:00:32 | 02:51:55 | 32 | 12911
2 | 02:52:12 | 06:52:15 | 12912 | 43826
3 | 09:44:27 | 04:38:08 | 43827 | 64684
4 | 14:22:35 | 05:33:10 | 64685 | 89669
5 | 19:55:45 | 02:22:42 | 89670 | 100361
6 | 22:18:12 | 04:40:20 | 100362 | 121381
7 | 26:58:32 | 02:24:13 | 121382 | 132194
All Tracks
Album gain : -8.14 dB
Peak : 0.988770
Track 01
Filename : /Users/scottems/Music/temp/(Rahsaan) Roland Kirk - Early Rootsпјљ The Bethlehem Years (1962)/01 Roland's Theme.flac
Pre-gap length : 00:02:32
Track gain : -7.50 dB
Peak : 0.988739
CRC32 hash (test run) : 4C5A0F57
CRC32 hash : 4C5A0F57
CRC32 hash (skip zero) : B545F64A
AccurateRip signature : 6A5E6F86
->Track not present in AccurateRip database.
Statistics
Read error : 0
Skipped (treated as error) : 0
Edge jitter error (maybe fixed) : 0
Atom jitter error (maybe fixed) : 0
Drift error (maybe fixed) : 0
Dropped bytes error (maybe fixed) : 0
Duplicated bytes error (maybe fixed) : 0
Inconsistency in error sectors : 0
Track 02
Filename : /Users/scottems/Music/temp/(Rahsaan) Roland Kirk - Early Rootsпјљ The Bethlehem Years (1962)/02 Slow Groove.flac
Pre-gap length : 00:02:50
Track gain : -8.21 dB
Peak : 0.988739
CRC32 hash (test run) : 763289EF
CRC32 hash : 763289EF
CRC32 hash (skip zero) : 64E8CF97
AccurateRip signature : AEE698A1
->Track not present in AccurateRip database.
Statistics
Read error : 0
Skipped (treated as error) : 0
Edge jitter error (maybe fixed) : 0
Atom jitter error (maybe fixed) : 0
Drift error (maybe fixed) : 0
Dropped bytes error (maybe fixed) : 0
Duplicated bytes error (maybe fixed) : 0
Inconsistency in error sectors : 0
Track 03
Filename : /Users/scottems/Music/temp/(Rahsaan) Roland Kirk - Early Rootsпјљ The Bethlehem Years (1962)/03 Stormy Weather.flac
Pre-gap length : 00:02:47
Track gain : -8.34 dB
Peak : 0.988770
CRC32 hash (test run) : 5252027B
CRC32 hash : 5252027B
CRC32 hash (skip zero) : D5903412
AccurateRip signature : 2D5DE7CD
->Track not present in AccurateRip database.
Statistics
Read error : 0
Skipped (treated as error) : 0
Edge jitter error (maybe fixed) : 0
Atom jitter error (maybe fixed) : 3
Drift error (maybe fixed) : 0
Dropped bytes error (maybe fixed) : 0
Duplicated bytes error (maybe fixed) : 0
Inconsistency in error sectors : 0
Track 04
Filename : /Users/scottems/Music/temp/(Rahsaan) Roland Kirk - Early Rootsпјљ The Bethlehem Years (1962)/04 The Nearness of You.flac
Pre-gap length : 00:02:48
Track gain : -7.93 dB
Peak : 0.988708
CRC32 hash (test run) : D40A4DF2
CRC32 hash : D40A4DF2
CRC32 hash (skip zero) : AFFCFEDF
AccurateRip signature : 73F4E974
->Track not present in AccurateRip database.
Statistics
Read error : 0
Skipped (treated as error) : 0
Edge jitter error (maybe fixed) : 0
Atom jitter error (maybe fixed) : 0
Drift error (maybe fixed) : 0
Dropped bytes error (maybe fixed) : 0
Duplicated bytes error (maybe fixed) : 0
Inconsistency in error sectors : 0
Track 05
Filename : /Users/scottems/Music/temp/(Rahsaan) Roland Kirk - Early Rootsпјљ The Bethlehem Years (1962)/05 A La Carte.flac
Pre-gap length : 00:02:48
Track gain : -7.98 dB
Peak : 0.988770
CRC32 hash (test run) : 93A6C1E0
CRC32 hash : 93A6C1E0
CRC32 hash (skip zero) : EAC8E61B
AccurateRip signature : 83F04A06
->Track not present in AccurateRip database.
Statistics
Read error : 0
Skipped (treated as error) : 0
Edge jitter error (maybe fixed) : 0
Atom jitter error (maybe fixed) : 11
Drift error (maybe fixed) : 0
Dropped bytes error (maybe fixed) : 0
Duplicated bytes error (maybe fixed) : 0
Inconsistency in error sectors : 0
Track 06
Filename : /Users/scottems/Music/temp/(Rahsaan) Roland Kirk - Early Rootsпјљ The Bethlehem Years (1962)/06 Easy Living.flac
Pre-gap length : 00:02:47
Track gain : -8.24 dB
Peak : 0.988739
CRC32 hash (test run) : 2483674B
CRC32 hash : 2483674B
CRC32 hash (skip zero) : C324AA4B
AccurateRip signature : 665BFF42
->Track not present in AccurateRip database.
Statistics
Read error : 0
Skipped (treated as error) : 0
Edge jitter error (maybe fixed) : 0
Atom jitter error (maybe fixed) : 0
Drift error (maybe fixed) : 0
Dropped bytes error (maybe fixed) : 0
Duplicated bytes error (maybe fixed) : 0
Inconsistency in error sectors : 0
Track 07
Filename : /Users/scottems/Music/temp/(Rahsaan) Roland Kirk - Early Rootsпјљ The Bethlehem Years (1962)/07 Triple Threat.flac
Pre-gap length : 00:02:50
Track gain : -8.11 dB
Peak : 0.988708
CRC32 hash (test run) : CA20FC9C
CRC32 hash : CA20FC9C
CRC32 hash (skip zero) : D57D339F
AccurateRip signature : E3102ED7
->Track not present in AccurateRip database.
Statistics
Read error : 0
Skipped (treated as error) : 0
Edge jitter error (maybe fixed) : 0
Atom jitter error (maybe fixed) : 0
Drift error (maybe fixed) : 0
Dropped bytes error (maybe fixed) : 0
Duplicated bytes error (maybe fixed) : 0
Inconsistency in error sectors : 0
No errors occurred
End of status report
 
Содержание индексной карты (.CUE)
TITLE "Early Roots: The Bethlehem Years"
PERFORMER "Rahsaan Roland Kirk"
CATALOG 0081227668822
REM GENRE "Jazz"
REM DATE 1956
REM DISCID 5606E207
FILE "01. Roland's Theme.flac" WAVE
TRACK 01 AUDIO
TITLE "Roland's Theme"
INDEX 00 00:00:00
INDEX 01 00:00:32
TRACK 02 AUDIO
TITLE "Slow Groove"
INDEX 00 02:49:05
FILE "02. Slow Groove.flac" WAVE
INDEX 01 00:00:00
TRACK 03 AUDIO
TITLE "Stormy Weather"
INDEX 00 06:49:43
FILE "03. Stormy Weather.flac" WAVE
INDEX 01 00:00:00
TRACK 04 AUDIO
TITLE "The Nearness Of You"
INDEX 00 04:35:35
FILE "04. The Nearness Of You.flac" WAVE
INDEX 01 00:00:00
TRACK 05 AUDIO
TITLE "A La Carte"
INDEX 00 05:30:37
FILE "05. A La Carte.flac" WAVE
INDEX 01 00:00:00
TRACK 06 AUDIO
TITLE "Easy Living"
INDEX 00 02:19:70
FILE "06. Easy Living.flac" WAVE
INDEX 01 00:00:00
TRACK 07 AUDIO
TITLE "Triple Threat"
INDEX 00 04:37:45
FILE "07. Triple Threat.flac" WAVE
INDEX 01 00:00:00
 
Лог проверки качества
AUDIOCHECKER v2.0 beta (build 457) - by Dester - opdester@freemail.hu
~~~~~~~~~~~~~~~~~~~~~~~~~~~~~~~~~~
-=== DO NOT EDIT THIS FILE! ===-
Path: ...\1956. Roland Kirk - Early Roots
1 -=- 01. Roland's Theme.flac -=- CDDA (100%)
2 -=- 02. Slow Groove.flac -=- CDDA (100%)
3 -=- 03. Stormy Weather.flac -=- CDDA (99%)
4 -=- 04. The Nearness Of You.flac -=- CDDA (100%)
5 -=- 05. A La Carte.flac -=- CDDA (100%)
6 -=- 06. Easy Living.flac -=- CDDA (100%)
7 -=- 07. Triple Threat.flac -=- CDDA (100%)
Summary 99,86% CDDA
69075412
Приватный:
Нет (DHT включён)
Размер:
97.35 Мб (102,076,433 байт) » файлов: 13
Участники:
0 раздают, 0 качают (0 участников всего)
Внешние участники:
3 раздают, 1 качают (4 участников всего) [ Обновить ]
No seeders - write personal message to M0p94ok. Нет сидеров - пишите в личку M0p94ok.
07:27
122
Нет комментариев. Ваш будет первым!