Поиск

(Post-Bop) Rahsaan Roland Kirk — Blacknuss (1971) — 1993, FLAC (tracks+.cue), lossless

Треклист:
Rahsaan Roland Kirk — Blacknuss (1971)
Жанр: Post-Bop
Год издания диска: 1993
Лейбл: Atlantic
Номер по каталогу: R2 71408
Аудиокодек: FLAC (*.flac)
Тип рипа: tracks+.cue
Битрейт аудио: lossless
Продолжительность: 43:09
Источник: вата
Сканов:
Треклист:
01. Ain't No Sunshine (2:29)
02. What's Goin' On - Mercy Mercy Me (The Ecology) (3:49)
03. I Love You Yes I Do (2:50)
04. Take Me Girl, I'm Ready (3:21)
05. My Girl (3:08)
06. Which Way Is It Going (2:28)
07. One Nation (3:42)
08. Never Can Say Goodbye (4:03)
09. Old Rugged Cross (7:17)
10. Make It With You (4:51)
11. Blacknuss (5:11)
Rec.: at Atlantic Studios and Regent Sound Studios, NYC, NY, between August 31 and September 8, 1971.
 
 
Лог создания рипа
X Lossless Decoder version 20101212 (126.2)
XLD extraction logfile from 2011-01-04 11:57:28 +0000
Rahsaan Roland Kirk / Blacknuss
Used drive : MATSHITA DVD-R UJ-857D (revision KCVB)
Ripper mode : CDParanoia III 10.2
Disable audio cache : OK for the drive with a cache less than 2750KiB
Make use of C2 pointers : NO
Read offset correction : 102
Max retry count : 100
Gap status : Analyzed, Appended
TOC of the extracted CD
Track | Start | Length | Start sector | End sector
---------------------------------------------------------
1 | 00:00:32 | 02:28:10 | 32 | 11141
2 | 02:28:42 | 03:48:53 | 11142 | 28294
3 | 06:17:20 | 02:50:20 | 28295 | 41064
4 | 09:07:40 | 03:21:22 | 41065 | 56161
5 | 12:28:62 | 03:07:55 | 56162 | 70241
6 | 15:36:42 | 02:27:45 | 70242 | 81311
7 | 18:04:12 | 03:42:15 | 81312 | 97976
8 | 21:46:27 | 04:03:10 | 97977 | 116211
9 | 25:49:37 | 07:16:73 | 116212 | 148984
10 | 33:06:35 | 04:51:30 | 148985 | 170839
11 | 37:57:65 | 05:10:72 | 170840 | 194161
AccurateRip Summary
Track 01 : OK (confidence 9)
Track 02 : OK (confidence 9)
Track 03 : OK (confidence 9)
Track 04 : OK (confidence 9)
Track 05 : OK (confidence 9)
Track 06 : OK (confidence 9)
Track 07 : OK (confidence 9)
Track 08 : OK (confidence 9)
Track 09 : OK (confidence 9)
Track 10 : OK (confidence 9)
Track 11 : OK (confidence 9)
->All tracks accurately ripped.
All Tracks
Album gain : -4.29 dB
Peak : 1.000000
Statistics
Read error : 0
Skipped (treated as error) : 0
Edge jitter error (maybe fixed) : 0
Atom jitter error (maybe fixed) : 0
Drift error (maybe fixed) : 0
Dropped bytes error (maybe fixed) : 0
Duplicated bytes error (maybe fixed) : 0
Track 01
Filename : /XLD/Rahsaan Roland Kirk - Blacknuss (1972) - FLAC (level 8)/01 - Ain't No Sunshine.flac
/XLD/Rahsaan Roland Kirk - Blacknuss (1972) - LAME MP3 (CBR 320kbps)/01 - Ain't No Sunshine.mp3
/XLD/Rahsaan Roland Kirk - Blacknuss (1972) - LAME MP3 (VBR-new quality 0.0) (1)/01 - Ain't No Sunshine.mp3
/XLD/Rahsaan Roland Kirk - Blacknuss (1972) - LAME MP3 (VBR-new quality 2.0)/01 - Ain't No Sunshine.mp3
Pre-gap length : 00:02:32
Track gain : -4.35 dB
Peak : 0.999969
CRC32 hash (test run) : 06AB1432
CRC32 hash : 06AB1432
CRC32 hash (skip zero) : 4318BFF3
AccurateRip signature : 13E7BADE
->Accurately ripped! (confidence 9)
Statistics
Read error : 0
Skipped (treated as error) : 0
Edge jitter error (maybe fixed) : 0
Atom jitter error (maybe fixed) : 0
Drift error (maybe fixed) : 0
Dropped bytes error (maybe fixed) : 0
Duplicated bytes error (maybe fixed) : 0
Inconsistency in error sectors : 0
Track 02
Filename : /XLD/Rahsaan Roland Kirk - Blacknuss (1972) - FLAC (level 8)/02 - What's Goin' On - Mercy Mercy Me (The Ecology).flac
/XLD/Rahsaan Roland Kirk - Blacknuss (1972) - LAME MP3 (CBR 320kbps)/02 - What's Goin' On - Mercy Mercy Me (The Ecology).mp3
/XLD/Rahsaan Roland Kirk - Blacknuss (1972) - LAME MP3 (VBR-new quality 0.0) (1)/02 - What's Goin' On - Mercy Mercy Me (The Ecology).mp3
/XLD/Rahsaan Roland Kirk - Blacknuss (1972) - LAME MP3 (VBR-new quality 2.0)/02 - What's Goin' On - Mercy Mercy Me (The Ecology).mp3
Pre-gap length : 00:02:49
Track gain : -4.84 dB
Peak : 0.999969
CRC32 hash (test run) : 6C47B978
CRC32 hash : 6C47B978
CRC32 hash (skip zero) : 2A66F1DD
AccurateRip signature : 19B919C5
->Accurately ripped! (confidence 9)
Statistics
Read error : 0
Skipped (treated as error) : 0
Edge jitter error (maybe fixed) : 0
Atom jitter error (maybe fixed) : 0
Drift error (maybe fixed) : 0
Dropped bytes error (maybe fixed) : 0
Duplicated bytes error (maybe fixed) : 0
Inconsistency in error sectors : 0
Track 03
Filename : /XLD/Rahsaan Roland Kirk - Blacknuss (1972) - FLAC (level 8)/03 - I Love You Yes I Do.flac
/XLD/Rahsaan Roland Kirk - Blacknuss (1972) - LAME MP3 (CBR 320kbps)/03 - I Love You Yes I Do.mp3
/XLD/Rahsaan Roland Kirk - Blacknuss (1972) - LAME MP3 (VBR-new quality 0.0) (1)/03 - I Love You Yes I Do.mp3
/XLD/Rahsaan Roland Kirk - Blacknuss (1972) - LAME MP3 (VBR-new quality 2.0)/03 - I Love You Yes I Do.mp3
Pre-gap length : 00:02:50
Track gain : -6.30 dB
Peak : 1.000000
CRC32 hash (test run) : EC248039
CRC32 hash : EC248039
CRC32 hash (skip zero) : 58B9B7D1
AccurateRip signature : 2FF8453F
->Accurately ripped! (confidence 9)
Statistics
Read error : 0
Skipped (treated as error) : 0
Edge jitter error (maybe fixed) : 0
Atom jitter error (maybe fixed) : 0
Drift error (maybe fixed) : 0
Dropped bytes error (maybe fixed) : 0
Duplicated bytes error (maybe fixed) : 0
Inconsistency in error sectors : 0
Track 04
Filename : /XLD/Rahsaan Roland Kirk - Blacknuss (1972) - FLAC (level 8)/04 - Take Me Girl, I'm Ready.flac
/XLD/Rahsaan Roland Kirk - Blacknuss (1972) - LAME MP3 (CBR 320kbps)/04 - Take Me Girl, I'm Ready.mp3
/XLD/Rahsaan Roland Kirk - Blacknuss (1972) - LAME MP3 (VBR-new quality 0.0) (1)/04 - Take Me Girl, I'm Ready.mp3
/XLD/Rahsaan Roland Kirk - Blacknuss (1972) - LAME MP3 (VBR-new quality 2.0)/04 - Take Me Girl, I'm Ready.mp3
Pre-gap length : 00:02:50
Track gain : -5.59 dB
Peak : 0.972229
CRC32 hash (test run) : D4633137
CRC32 hash : D4633137
CRC32 hash (skip zero) : E47355C6
AccurateRip signature : 3E2969A5
->Accurately ripped! (confidence 9)
Statistics
Read error : 0
Skipped (treated as error) : 0
Edge jitter error (maybe fixed) : 0
Atom jitter error (maybe fixed) : 0
Drift error (maybe fixed) : 0
Dropped bytes error (maybe fixed) : 0
Duplicated bytes error (maybe fixed) : 0
Inconsistency in error sectors : 0
Track 05
Filename : /XLD/Rahsaan Roland Kirk - Blacknuss (1972) - FLAC (level 8)/05 - My Girl.flac
/XLD/Rahsaan Roland Kirk - Blacknuss (1972) - LAME MP3 (CBR 320kbps)/05 - My Girl.mp3
/XLD/Rahsaan Roland Kirk - Blacknuss (1972) - LAME MP3 (VBR-new quality 0.0) (1)/05 - My Girl.mp3
/XLD/Rahsaan Roland Kirk - Blacknuss (1972) - LAME MP3 (VBR-new quality 2.0)/05 - My Girl.mp3
Pre-gap length : 00:02:49
Track gain : -1.99 dB
Peak : 0.990662
CRC32 hash (test run) : C7C15155
CRC32 hash : C7C15155
CRC32 hash (skip zero) : E8537A52
AccurateRip signature : 154331FB
->Accurately ripped! (confidence 9)
Statistics
Read error : 0
Skipped (treated as error) : 0
Edge jitter error (maybe fixed) : 0
Atom jitter error (maybe fixed) : 0
Drift error (maybe fixed) : 0
Dropped bytes error (maybe fixed) : 0
Duplicated bytes error (maybe fixed) : 0
Inconsistency in error sectors : 0
Track 06
Filename : /XLD/Rahsaan Roland Kirk - Blacknuss (1972) - FLAC (level 8)/06 - Which Way Is It Going.flac
/XLD/Rahsaan Roland Kirk - Blacknuss (1972) - LAME MP3 (CBR 320kbps)/06 - Which Way Is It Going.mp3
/XLD/Rahsaan Roland Kirk - Blacknuss (1972) - LAME MP3 (VBR-new quality 0.0) (1)/06 - Which Way Is It Going.mp3
/XLD/Rahsaan Roland Kirk - Blacknuss (1972) - LAME MP3 (VBR-new quality 2.0)/06 - Which Way Is It Going.mp3
Pre-gap length : 00:02:49
Track gain : -2.18 dB
Peak : 0.970123
CRC32 hash (test run) : 13D03882
CRC32 hash : 13D03882
CRC32 hash (skip zero) : 6F6DFF1A
AccurateRip signature : 448A6E0F
->Accurately ripped! (confidence 9)
Statistics
Read error : 0
Skipped (treated as error) : 0
Edge jitter error (maybe fixed) : 0
Atom jitter error (maybe fixed) : 0
Drift error (maybe fixed) : 0
Dropped bytes error (maybe fixed) : 0
Duplicated bytes error (maybe fixed) : 0
Inconsistency in error sectors : 0
Track 07
Filename : /XLD/Rahsaan Roland Kirk - Blacknuss (1972) - FLAC (level 8)/07 - One Nation.flac
/XLD/Rahsaan Roland Kirk - Blacknuss (1972) - LAME MP3 (CBR 320kbps)/07 - One Nation.mp3
/XLD/Rahsaan Roland Kirk - Blacknuss (1972) - LAME MP3 (VBR-new quality 0.0) (1)/07 - One Nation.mp3
/XLD/Rahsaan Roland Kirk - Blacknuss (1972) - LAME MP3 (VBR-new quality 2.0)/07 - One Nation.mp3
Pre-gap length : 00:02:49
Track gain : -2.92 dB
Peak : 0.997589
CRC32 hash (test run) : 7C6440D4
CRC32 hash : 7C6440D4
CRC32 hash (skip zero) : D592651B
AccurateRip signature : 245F55F8
->Accurately ripped! (confidence 9)
Statistics
Read error : 0
Skipped (treated as error) : 0
Edge jitter error (maybe fixed) : 0
Atom jitter error (maybe fixed) : 0
Drift error (maybe fixed) : 0
Dropped bytes error (maybe fixed) : 0
Duplicated bytes error (maybe fixed) : 0
Inconsistency in error sectors : 0
Track 08
Filename : /XLD/Rahsaan Roland Kirk - Blacknuss (1972) - FLAC (level 8)/08 - Never Can Say Goodbye.flac
/XLD/Rahsaan Roland Kirk - Blacknuss (1972) - LAME MP3 (CBR 320kbps)/08 - Never Can Say Goodbye.mp3
/XLD/Rahsaan Roland Kirk - Blacknuss (1972) - LAME MP3 (VBR-new quality 0.0) (1)/08 - Never Can Say Goodbye.mp3
/XLD/Rahsaan Roland Kirk - Blacknuss (1972) - LAME MP3 (VBR-new quality 2.0)/08 - Never Can Say Goodbye.mp3
Pre-gap length : 00:02:49
Track gain : -3.26 dB
Peak : 0.981537
CRC32 hash (test run) : E2198640
CRC32 hash : E2198640
CRC32 hash (skip zero) : D147CDD0
AccurateRip signature : F9E599CF
->Accurately ripped! (confidence 9)
Statistics
Read error : 0
Skipped (treated as error) : 0
Edge jitter error (maybe fixed) : 0
Atom jitter error (maybe fixed) : 0
Drift error (maybe fixed) : 0
Dropped bytes error (maybe fixed) : 0
Duplicated bytes error (maybe fixed) : 0
Inconsistency in error sectors : 0
Track 09
Filename : /XLD/Rahsaan Roland Kirk - Blacknuss (1972) - FLAC (level 8)/09 - Old Rugged Cross.flac
/XLD/Rahsaan Roland Kirk - Blacknuss (1972) - LAME MP3 (CBR 320kbps)/09 - Old Rugged Cross.mp3
/XLD/Rahsaan Roland Kirk - Blacknuss (1972) - LAME MP3 (VBR-new quality 0.0) (1)/09 - Old Rugged Cross.mp3
/XLD/Rahsaan Roland Kirk - Blacknuss (1972) - LAME MP3 (VBR-new quality 2.0)/09 - Old Rugged Cross.mp3
Pre-gap length : 00:02:49
Track gain : -3.85 dB
Peak : 0.999969
CRC32 hash (test run) : 20D1BEE5
CRC32 hash : 20D1BEE5
CRC32 hash (skip zero) : 3757E417
AccurateRip signature : 1C36E5DF
->Accurately ripped! (confidence 9)
Statistics
Read error : 0
Skipped (treated as error) : 0
Edge jitter error (maybe fixed) : 0
Atom jitter error (maybe fixed) : 0
Drift error (maybe fixed) : 0
Dropped bytes error (maybe fixed) : 0
Duplicated bytes error (maybe fixed) : 0
Inconsistency in error sectors : 0
Track 10
Filename : /XLD/Rahsaan Roland Kirk - Blacknuss (1972) - FLAC (level 8)/10 - Make It With You.flac
/XLD/Rahsaan Roland Kirk - Blacknuss (1972) - LAME MP3 (CBR 320kbps)/10 - Make It With You.mp3
/XLD/Rahsaan Roland Kirk - Blacknuss (1972) - LAME MP3 (VBR-new quality 0.0) (1)/10 - Make It With You.mp3
/XLD/Rahsaan Roland Kirk - Blacknuss (1972) - LAME MP3 (VBR-new quality 2.0)/10 - Make It With You.mp3
Pre-gap length : 00:02:50
Track gain : -3.42 dB
Peak : 0.999969
CRC32 hash (test run) : 00880CE5
CRC32 hash : 00880CE5
CRC32 hash (skip zero) : BF6E8C36
AccurateRip signature : 2F45A11F
->Accurately ripped! (confidence 9)
Statistics
Read error : 0
Skipped (treated as error) : 0
Edge jitter error (maybe fixed) : 0
Atom jitter error (maybe fixed) : 0
Drift error (maybe fixed) : 0
Dropped bytes error (maybe fixed) : 0
Duplicated bytes error (maybe fixed) : 0
Inconsistency in error sectors : 0
Track 11
Filename : /XLD/Rahsaan Roland Kirk - Blacknuss (1972) - FLAC (level 8)/11 - Blacknuss.flac
/XLD/Rahsaan Roland Kirk - Blacknuss (1972) - LAME MP3 (CBR 320kbps)/11 - Blacknuss.mp3
/XLD/Rahsaan Roland Kirk - Blacknuss (1972) - LAME MP3 (VBR-new quality 0.0) (1)/11 - Blacknuss.mp3
/XLD/Rahsaan Roland Kirk - Blacknuss (1972) - LAME MP3 (VBR-new quality 2.0)/11 - Blacknuss.mp3
Pre-gap length : 00:02:50
Track gain : -2.56 dB
Peak : 0.988129
CRC32 hash (test run) : D2F7DFF4
CRC32 hash : D2F7DFF4
CRC32 hash (skip zero) : DAE2DA8C
AccurateRip signature : ACE4A0CB
->Accurately ripped! (confidence 9)
Statistics
Read error : 0
Skipped (treated as error) : 0
Edge jitter error (maybe fixed) : 0
Atom jitter error (maybe fixed) : 0
Drift error (maybe fixed) : 0
Dropped bytes error (maybe fixed) : 0
Duplicated bytes error (maybe fixed) : 0
Inconsistency in error sectors : 0
No errors occurred
End of status report
 
Содержание индексной карты (.CUE)
TITLE "Blacknuss"
PERFORMER "Rahsaan Roland Kirk"
CATALOG 0075677140823
REM GENRE "Jazz"
REM DATE "1971"
REM DISCID A20A1C0B
FILE "01 - Ain't No Sunshine.flac" WAVE
TRACK 01 AUDIO
TITLE "Ain't No Sunshine"
INDEX 00 00:00:00
INDEX 01 00:00:32
TRACK 02 AUDIO
TITLE "What's Goin' On - Mercy Mercy Me (The Ecology)"
INDEX 00 02:25:36
FILE "02 - What's Goin' On - Mercy Mercy Me (The Ecology).flac" WAVE
INDEX 01 00:00:00
TRACK 03 AUDIO
TITLE "I Love You Yes I Do"
INDEX 00 03:46:03
FILE "03 - I Love You Yes I Do.flac" WAVE
INDEX 01 00:00:00
TRACK 04 AUDIO
TITLE "Take Me Girl, I'm Ready"
INDEX 00 02:47:45
FILE "04 - Take Me Girl, I'm Ready.flac" WAVE
INDEX 01 00:00:00
TRACK 05 AUDIO
TITLE "My Girl"
INDEX 00 03:18:48
FILE "05 - My Girl.flac" WAVE
INDEX 01 00:00:00
TRACK 06 AUDIO
TITLE "Which Way Is It Going"
INDEX 00 03:05:06
FILE "06 - Which Way Is It Going.flac" WAVE
INDEX 01 00:00:00
TRACK 07 AUDIO
TITLE "One Nation"
INDEX 00 02:24:71
FILE "07 - One Nation.flac" WAVE
INDEX 01 00:00:00
TRACK 08 AUDIO
TITLE "Never Can Say Goodbye"
INDEX 00 03:39:41
FILE "08 - Never Can Say Goodbye.flac" WAVE
INDEX 01 00:00:00
TRACK 09 AUDIO
TITLE "Old Rugged Cross"
INDEX 00 04:00:36
FILE "09 - Old Rugged Cross.flac" WAVE
INDEX 01 00:00:00
TRACK 10 AUDIO
TITLE "Make It With You"
INDEX 00 07:14:23
FILE "10 - Make It With You.flac" WAVE
INDEX 01 00:00:00
TRACK 11 AUDIO
TITLE "Blacknuss"
INDEX 00 04:48:55
FILE "11 - Blacknuss.flac" WAVE
INDEX 01 00:00:00
 
Лог проверки качества
AUDIOCHECKER v2.0 beta (build 457) - by Dester - opdester@freemail.hu
~~~~~~~~~~~~~~~~~~~~~~~~~~~~~~~~~~
-=== DO NOT EDIT THIS FILE! ===-
Path: ...\1971. Rahsaan Roland Kirk - Blacknuss
01 -=- 01 - Ain't No Sunshine.flac -=- CDDA (100%)
02 -=- 02 - What's Goin' On - Mercy Mercy Me (The Ecology).flac -=- CDDA (100%)
03 -=- 03 - I Love You Yes I Do.flac -=- CDDA (100%)
04 -=- 04 - Take Me Girl, I'm Ready.flac -=- CDDA (100%)
05 -=- 05 - My Girl.flac -=- CDDA (100%)
06 -=- 06 - Which Way Is It Going.flac -=- CDDA (99%)
07 -=- 07 - One Nation.flac -=- CDDA (100%)
08 -=- 08 - Never Can Say Goodbye.flac -=- CDDA (100%)
09 -=- 09 - Old Rugged Cross.flac -=- CDDA (100%)
10 -=- 10 - Make It With You.flac -=- CDDA (100%)
11 -=- 11 - Blacknuss.flac -=- CDDA (100%)
Summary 99,91% CDDA
227412196
 
Состав
Rahsaan Roland Kirk (vocals, tenor saxophone, flute, whistle, percussion); Princess Patience Burton, Cissy Houston (vocals); Charles McGhee (trumpet); Dick Griffin (trombone); Sonelius Smith, Richard Tee (piano); Mickey Tucker (organ); Billy Butler, Cornell Dupree, Keith Loving (guitar); Henry Pearson, Bill Salter (bass); Khalil Mhrdi, Bernard Purdie (drums); Arthur Jenkins (congas, cabasa); Richard Landrum (congas); Joe Habad (percussion)
Приватный:
Нет (DHT включён)
Размер:
261.94 Мб (274,659,538 байт) » файлов: 21
Участники:
0 раздают, 0 качают (0 участников всего)
Внешние участники:
5 раздают, 2 качают (7 участников всего) [ Обновить ]
No seeders - write personal message to M0p94ok. Нет сидеров - пишите в личку M0p94ok.
07:27
227
Нет комментариев. Ваш будет первым!