Поиск

(Post-Bop, Piano Trio) [CD] Larry Willis - My Funny Valentine (Kenny Garrett, George Mraz, Al Foster) 1988 - 1998, FLAC (tracks+.cue), lossless

(Post-Bop, Piano Trio) [CD] Larry Willis - My Funny Valentine (Kenny Garrett, George Mraz, Al Foster) 1988 - 1998, FLAC (tracks+.cue), lossless
Треклист:
Larry Willis / My Funny Valentine
Жанр: Post-Bop, Piano Trio
Носитель: CD
Год издания: 1998
Издатель (лейбл): Evidence
Номер по каталогу: ECD 22205-2
Аудиокодек: FLAC (*.flac)
Тип рипа: tracks+.cue
Битрейт аудио: lossless
Продолжительность: 01:03:38
Источник (релизер): voopa
Наличие сканов в содержимом раздачи: нет
Треклист:
1. For Openers (Garrett) - 5:46
2. It Could Happen to You (Burke/VanHeusen) - 3:18
3. Blues for Wynton Kelly (Willis) - 6:32
4. Who's Kidding Who? (DAngelo) - 8:52
5. Rhythm-A-Ning (Monk) - 6:04
6. Blood Count (Strayhorn) - 6:29
7. My Shining Hour/I'll Be Seeing You (Arlen/Fain/Kahal/Mercer) - 6:46
8. Lazy Afternoon (Latouche/Moross) - 5:16
9. Ethiopia (Willis) - 8:02
10. My Funny Valentine (Hart/Rodgers) - 6:02
 
Лог создания рипа
Exact Audio Copy V1.0 beta 3 from 29. August 2011
EAC extraction logfile from 16. October 2011, 11:03
Larry Willis / My Funny Valentine
Used drive : TSSTcorpDVD+-RW TS-H653F Adapter: 0 ID: 1
Read mode : Secure
Utilize accurate stream : Yes
Defeat audio cache : Yes
Make use of C2 pointers : No
Read offset correction : 6
Overread into Lead-In and Lead-Out : No
Fill up missing offset samples with silence : Yes
Delete leading and trailing silent blocks : No
Null samples used in CRC calculations : Yes
Used interface : Native Win32 interface for Win NT & 2000
Gap handling : Appended to previous track
Used output format : User Defined Encoder
Selected bitrate : 768 kBit/s
Quality : High
Add ID3 tag : No
Command line compressor : C:\Program Files\Exact Audio Copy\FLAC\FLAC.EXE
Additional command line options : -V -8 -T "artist=%artist%" -T "title=%title%" -T "album=%albumtitle%" -T "date=%year%" -T "tracknumber=%tracknr%" -T "genre=%genre%" %source%
TOC of the extracted CD
Track | Start | Length | Start sector | End sector
---------------------------------------------------------
1 | 0:00.00 | 5:46.50 | 0 | 25999
2 | 5:46.50 | 3:18.22 | 26000 | 40871
3 | 9:04.72 | 6:31.45 | 40872 | 70241
4 | 15:36.42 | 8:52.65 | 70242 | 110206
5 | 24:29.32 | 6:03.50 | 110207 | 137481
6 | 30:33.07 | 6:28.63 | 137482 | 166644
7 | 37:01.70 | 6:46.00 | 166645 | 197094
8 | 43:47.70 | 5:45.52 | 197095 | 223021
9 | 49:33.47 | 8:02.53 | 223022 | 259224
10 | 57:36.25 | 6:01.70 | 259225 | 286369
Track 1
Filename K:\EAC rips\Larry Willis - My Funny Valentine - 1988 [FLAC]\01 - For Opener's.wav
Pre-gap length 0:00:02.00
Peak level 87.6 %
Extraction speed 5.0 X
Track quality 100.0 %
Test CRC 2A3A8ECA
Copy CRC 2A3A8ECA
Accurately ripped (confidence 2) [18C2DB24] (AR v1)
Copy OK
Track 2
Filename K:\EAC rips\Larry Willis - My Funny Valentine - 1988 [FLAC]\02 - It could Happen to You.wav
Pre-gap length 0:00:04.06
Peak level 72.5 %
Extraction speed 5.2 X
Track quality 100.0 %
Test CRC E816118F
Copy CRC E816118F
Accurately ripped (confidence 2) [FC188C29] (AR v1)
Copy OK
Track 3
Filename K:\EAC rips\Larry Willis - My Funny Valentine - 1988 [FLAC]\03 - Blues for Wynton Kelly.wav
Pre-gap length 0:00:02.10
Peak level 96.3 %
Extraction speed 6.1 X
Track quality 100.0 %
Test CRC 5CBC8311
Copy CRC 5CBC8311
Accurately ripped (confidence 2) [05476F57] (AR v1)
Copy OK
Track 4
Filename K:\EAC rips\Larry Willis - My Funny Valentine - 1988 [FLAC]\04 - Who's Kidding Who.wav
Pre-gap length 0:00:02.49
Peak level 97.7 %
Extraction speed 6.3 X
Track quality 99.9 %
Test CRC D3BE664F
Copy CRC D3BE664F
Accurately ripped (confidence 2) [60336450] (AR v1)
Copy OK
Track 5
Filename K:\EAC rips\Larry Willis - My Funny Valentine - 1988 [FLAC]\05 - Rhythm-A-Ning.wav
Pre-gap length 0:00:02.60
Peak level 97.7 %
Extraction speed 7.5 X
Track quality 100.0 %
Test CRC CFE01C88
Copy CRC CFE01C88
Accurately ripped (confidence 2) [1F9305EA] (AR v1)
Copy OK
Track 6
Filename K:\EAC rips\Larry Willis - My Funny Valentine - 1988 [FLAC]\06 - Blood Count.wav
Pre-gap length 0:00:01.73
Peak level 91.8 %
Extraction speed 8.0 X
Track quality 100.0 %
Test CRC 114005C5
Copy CRC 114005C5
Accurately ripped (confidence 2) [0B934056] (AR v1)
Copy OK
Track 7
Filename K:\EAC rips\Larry Willis - My Funny Valentine - 1988 [FLAC]\07 - My shining Hour.wav
Pre-gap length 0:00:02.30
Peak level 92.7 %
Extraction speed 7.3 X
Track quality 99.9 %
Test CRC 3E11F431
Copy CRC 3E11F431
Accurately ripped (confidence 2) [5D2B6628] (AR v1)
Copy OK
Track 8
Filename K:\EAC rips\Larry Willis - My Funny Valentine - 1988 [FLAC]\08 - Lazy Afternoon.wav
Pre-gap length 0:00:01.84
Peak level 70.1 %
Extraction speed 8.7 X
Track quality 100.0 %
Test CRC D1BD4F66
Copy CRC D1BD4F66
Accurately ripped (confidence 2) [3EC3550A] (AR v1)
Copy OK
Track 9
Filename K:\EAC rips\Larry Willis - My Funny Valentine - 1988 [FLAC]\09 - Ethiopia.wav
Pre-gap length 0:00:03.46
Peak level 84.3 %
Extraction speed 8.3 X
Track quality 99.9 %
Test CRC D7B6145F
Copy CRC D7B6145F
Accurately ripped (confidence 2) [D15F4834] (AR v1)
Copy OK
Track 10
Filename K:\EAC rips\Larry Willis - My Funny Valentine - 1988 [FLAC]\10 - My Funny Valentine.wav
Pre-gap length 0:00:03.46
Peak level 82.6 %
Extraction speed 9.7 X
Track quality 100.0 %
Test CRC EAC16EB3
Copy CRC EAC16EB3
Accurately ripped (confidence 2) [93C40D3D] (AR v1)
Copy OK
All tracks accurately ripped
No errors occurred
End of status report
---- CUETools DB Plugin V2.1.3
[CTDB TOCID: czPkNatyBjP2Fh5oDgZCgjt32to-] disk not present in database, Submit result: czPkNatyBjP2Fh5oDgZCgjt32to- has been uploaded
==== Log checksum 2EDDDF4E5D86A1434A4CC33E4B50A16CC1DF0DD46466A48639E7DABA92E51A06 ====
 
Содержание индексной карты (.CUE)
REM GENRE Jazz
REM DATE 1988
REM DISCID 990EEA0A
REM COMMENT "ExactAudioCopy v1.0b3"
FILE "01 - For Opener's.wav" WAVE
TRACK 01 AUDIO
INDEX 01 00:00:00
TRACK 02 AUDIO
INDEX 00 05:42:45
FILE "02 - It could Happen to You.wav" WAVE
INDEX 01 00:00:00
TRACK 03 AUDIO
INDEX 00 03:16:14
FILE "03 - Blues for Wynton Kelly.wav" WAVE
INDEX 01 00:00:00
TRACK 04 AUDIO
INDEX 00 06:29:08
FILE "04 - Who's Kidding Who.wav" WAVE
INDEX 01 00:00:00
TRACK 05 AUDIO
INDEX 00 08:50:20
FILE "05 - Rhythm-A-Ning.wav" WAVE
INDEX 01 00:00:00
TRACK 06 AUDIO
INDEX 00 06:01:70
FILE "06 - Blood Count.wav" WAVE
INDEX 01 00:00:00
TRACK 07 AUDIO
INDEX 00 06:26:40
FILE "07 - My shining Hour.wav" WAVE
INDEX 01 00:00:00
TRACK 08 AUDIO
INDEX 00 06:44:12
FILE "08 - Lazy Afternoon.wav" WAVE
INDEX 01 00:00:00
TRACK 09 AUDIO
INDEX 00 05:42:17
FILE "09 - Ethiopia.wav" WAVE
INDEX 01 00:00:00
TRACK 10 AUDIO
INDEX 00 07:59:18
FILE "10 - My Funny Valentine.wav" WAVE
INDEX 01 00:00:00
 
Об альбоме (сборнике)
By Bret Primack
Among his contemporaries Kenny Barron, Harold Mabern, Albert Dailey, Stanley Cowell and John Hicks, Larry Willis is one of the great stylists. On his debut CD as leader, recorded in 1988, when he was a mere 47, he shows why. Willis is a rugged individualist, as evidenced by his dramatic reading of the title track.
On solo piano tracks "Lazy Afternoon," and "It Could Happen to You," Willis plays with haunting beauty and lyrical swing. Joined by bassist George Mraz and drummer Al Foster for several standards and his own "Blues for Wynton Kelly," Mr. Willis benefits from the empathetic accompaniment, and his solos, which are teaming with energy, abound in risk and surprise as well. Kenny Garrett is on board for three tracks, including an extraordinary duet Willis wrote entitled "Ethiopia."
Larry Willis has since released three other CDs as a leader and played on many others as sideman, including recent work with the Fort Apache Band. A consistent, energetic player, Willis comes to play. But why the delayed debut?
 
Состав
Larry Willis - Piano
Al Foster - Drums
Kenny Garrett - Piano, Sax (Alto)
George Mraz - Bass
Приватный:
Нет (DHT включён)
Размер:
294.56 Мб (308,865,093 байт) » файлов: 15
Участники:
0 раздают, 0 качают (0 участников всего)
Внешние участники:
1 раздают, 0 качают (1 участников всего) [ Обновить ]
For power users only: no seeders - write to support@pro-jazz.com. Для power user: нет сидеров - пишите на support@pro-jazz.com.
08:57
101
Нет комментариев. Ваш будет первым!