Вы используете незарегистрированную версию компонента "Вкладки"!

Поиск

(Post-Bop, Neo-Bop) [CD] Roger Kellaway - Live At The Jazz Standard - 2008 (2 CD), FLAC (image+.cue), lossless

(Post-Bop, Neo-Bop) [CD] Roger Kellaway - Live At The Jazz Standard - 2008 (2 CD), FLAC (image+.cue), lossless
Треклист:
Roger Kellaway / Live At The Jazz Standard
Жанр: Post-Bop, Neo-Bop
Носитель: CD
Страна-производитель диска (релиза): US
Год издания: 2008
Издатель (лейбл): IPO Recordings ‎
Номер по каталогу: IPOC1014A1
Аудиокодек: FLAC (*.flac)
Тип рипа: image+.cue
Битрейт аудио: lossless
Продолжительность: 01:57:15
Источник (релизер): локальная сеть
Наличие сканов в содержимом раздачи: нет
Треклист:
 
CD1 (01:01:57)
1 Cottontail
2 C Jam Blues
3 Someday My Prince Will Come
4 All My Life
5 I'm Beginning To See The Light
6 Take Five
7 The Nearness Of You
8 Doxy
 
Лог создания рипа
Exact Audio Copy V1.0 beta 1 from 15. November 2010
EAC extraction logfile from 24. April 2014, 13:49
Roger Kellaway / Live at the Jazz Standard - CD1
Used drive : ATAPI DVD A DH20A4P Adapter: 1 ID: 0
Read mode : Secure
Utilize accurate stream : Yes
Defeat audio cache : Yes
Make use of C2 pointers : No
Read offset correction : 6
Overread into Lead-In and Lead-Out : No
Fill up missing offset samples with silence : Yes
Delete leading and trailing silent blocks : No
Null samples used in CRC calculations : Yes
Used interface : Installed external ASPI interface
Used output format : User Defined Encoder
Selected bitrate : 1024 kBit/s
Quality : High
Add ID3 tag : No
Command line compressor : C:\Program Files\Exact Audio Copy\Flac\flac.exe
Additional command line options : -5 -V -T "ARTIST=%a" -T "TITLE=%t" -T "ALBUM=%g" -T "DATE=%y" -T "TRACKNUMBER=%n" -T "GENRE=%m" -T "COMMENT=[oStereo.ru]" %s
TOC of the extracted CD
Track | Start | Length | Start sector | End sector
---------------------------------------------------------
1 | 0:00.00 | 6:44.00 | 0 | 30299
2 | 6:44.00 | 10:16.00 | 30300 | 76499
3 | 17:00.00 | 8:40.00 | 76500 | 115499
4 | 25:40.00 | 6:04.00 | 115500 | 142799
5 | 31:44.00 | 8:36.00 | 142800 | 181499
6 | 40:20.00 | 8:31.00 | 181500 | 219824
7 | 48:51.00 | 6:34.00 | 219825 | 249374
8 | 55:25.00 | 6:32.00 | 249375 | 278774
Range status and errors
Selected range
Filename C:\Roger Kellaway - Live at the Jazz Standard - CD1 - 2008 - IPO.wav
Peak level 98.8 %
Extraction speed 0.3 X
Range quality 100.0 %
Test CRC 3D461E1F
Copy CRC 3D461E1F
Copy OK
No errors occurred
AccurateRip summary
Track 1 accurately ripped (confidence 5) [D36111D3]
Track 2 accurately ripped (confidence 5) [240655DD]
Track 3 accurately ripped (confidence 5) [A44BA71C]
Track 4 accurately ripped (confidence 5) [B30E49A7]
Track 5 accurately ripped (confidence 5) [43B37095]
Track 6 accurately ripped (confidence 5) [F0C79967]
Track 7 accurately ripped (confidence 5) [1F1E16A4]
Track 8 accurately ripped (confidence 5) [BDA3DDAE]
All tracks accurately ripped
End of status report
==== Log checksum 37CB548EC7142A7BBFA9B47BEA2ACBD809E70F32FFF3C4D58DC9C633FC34F6B3 ====
 
Содержание индексной карты (.CUE)
REM GENRE Jazz
REM DATE 2008
REM DISCID 570E8508
REM COMMENT "ExactAudioCopy v1.0b1"
PERFORMER " Roger Kellaway"
TITLE "Live at the Jazz Standard - CD1"
FILE "Roger Kellaway - Live at the Jazz Standard - CD1 - 2008 - IPO.flac" WAVE
TRACK 01 AUDIO
TITLE "Cottontail"
PERFORMER " Roger Kellaway"
INDEX 01 00:00:00
TRACK 02 AUDIO
TITLE "C jam blues"
PERFORMER " Roger Kellaway"
INDEX 01 06:44:00
TRACK 03 AUDIO
TITLE "Someday my prince will come"
PERFORMER " Roger Kellaway"
INDEX 01 17:00:00
TRACK 04 AUDIO
TITLE "All my life"
PERFORMER " Roger Kellaway"
INDEX 01 25:40:00
TRACK 05 AUDIO
TITLE "Im beginning to see the light"
PERFORMER " Roger Kellaway"
INDEX 01 31:44:00
TRACK 06 AUDIO
TITLE "Take5"
PERFORMER " Roger Kellaway"
INDEX 01 40:20:00
TRACK 07 AUDIO
TITLE "The nearness of you"
PERFORMER " Roger Kellaway"
INDEX 01 48:51:00
TRACK 08 AUDIO
TITLE "Doxy"
PERFORMER " Roger Kellaway"
INDEX 01 55:25:00
 
CD2 (00:55:18)
1 Tumbling Tumbleweeds
2 Cherry
3 You Don't Know What Love Is
4 Freddie Freeloader
5 52nd Street Theme
 
Лог создания рипа
Exact Audio Copy V1.0 beta 1 from 15. November 2010
EAC extraction logfile from 27. April 2014, 13:38
- / -
Used drive : ATAPI DVD A DH20A4P Adapter: 1 ID: 0
Read mode : Secure
Utilize accurate stream : Yes
Defeat audio cache : Yes
Make use of C2 pointers : No
Read offset correction : 6
Overread into Lead-In and Lead-Out : No
Fill up missing offset samples with silence : Yes
Delete leading and trailing silent blocks : No
Null samples used in CRC calculations : Yes
Used interface : Installed external ASPI interface
Used output format : User Defined Encoder
Selected bitrate : 1024 kBit/s
Quality : High
Add ID3 tag : No
Command line compressor : C:\Program Files\Exact Audio Copy\Flac\flac.exe
Additional command line options : -5 -V -T "ARTIST=%a" -T "TITLE=%t" -T "ALBUM=%g" -T "DATE=%y" -T "TRACKNUMBER=%n" -T "GENRE=%m" -T "COMMENT=[oStereo.ru]" %s
TOC of the extracted CD
Track | Start | Length | Start sector | End sector
---------------------------------------------------------
1 | 0:00.00 | 10:01.00 | 0 | 45074
2 | 10:01.00 | 14:54.00 | 45075 | 112124
3 | 24:55.00 | 8:51.00 | 112125 | 151949
4 | 33:46.00 | 15:12.00 | 151950 | 220349
5 | 48:58.00 | 6:20.00 | 220350 | 248849
Range status and errors
Selected range
Filename C:\Roger Kellaway - Live at the Jazz Standard - CD2 - 2008 - IPO.wav
Peak level 99.1 %
Extraction speed 0.3 X
Range quality 99.9 %
Test CRC 5E6989E4
Copy CRC 5E6989E4
Copy OK
No errors occurred
AccurateRip summary
Track 1 accurately ripped (confidence 5) [4D57BD9F]
Track 2 accurately ripped (confidence 5) [622793B3]
Track 3 accurately ripped (confidence 5) [AE692FAC]
Track 4 accurately ripped (confidence 5) [1BE54294]
Track 5 accurately ripped (confidence 5) [2107A410]
All tracks accurately ripped
End of status report
==== Log checksum F26991F2E298C5673F10DCA20688C1B5AE558B3CB53664DD683356B382068956 ====
 
Содержание индексной карты (.CUE)
REM DISCID 3B0CF605
REM COMMENT "ExactAudioCopy v1.0b1"
PERFORMER "Roger Kellaway"
TITLE "Live at the Jazz Standard - CD2"
FILE "Roger Kellaway - Live at the Jazz Standard - CD2 - 2008 - IPO.flac" WAVE
TRACK 01 AUDIO
TITLE "Tumblin tumbleweeds"
PERFORMER "Roger Kellaway"
INDEX 01 00:00:00
TRACK 02 AUDIO
TITLE "Cherry"
PERFORMER "Roger Kellaway"
INDEX 01 10:01:00
TRACK 03 AUDIO
TITLE "You dont know what love is"
PERFORMER "Roger Kellaway"
INDEX 01 24:55:00
TRACK 04 AUDIO
TITLE "Freddie freeloader"
PERFORMER "Roger Kellaway"
INDEX 01 33:46:00
TRACK 05 AUDIO
TITLE "52Nd street theme"
PERFORMER "Roger Kellaway"
INDEX 01 48:58:00
Доп. информация: Recorded live at the Jazz Standard, New York City, May 25 - 28, 2006
Any questions - support@pro-jazz.com. Есть вопросы - support@pro-jazz.com
11:39
272
Нет комментариев. Ваш будет первым!