Вы используете незарегистрированную версию компонента "Вкладки"!

Поиск

(Bop, Smooth Jazz, Big Band, Swing) [CD] Johnny Griffin - Griff'n'Bags - 1998, FLAC (image+.cue), lossless

(Bop, Smooth Jazz, Big Band, Swing) [CD] Johnny Griffin - Griff'n'Bags - 1998, FLAC (image+.cue), lossless
Треклист:
Johnny Griffin / Griff'n'Bags
Жанр: Bop, Smooth Jazz, Big Band, Swing
Носитель: CD
Страна-производитель диска (релиза): Italy
Год издания: 1998
Издатель (лейбл): Rearward ‎
Номер по каталогу: RW103 CD
Аудиокодек: FLAC (*.flac)
Тип рипа: image+.cue
Битрейт аудио: lossless
Продолжительность: 01:15:50
Источник (релизер): локальная сеть
Наличие сканов в содержимом раздачи: нет
Треклист:
1 Gamal Sady'n'Em 4:59
2 Lonely Girl 2:48
3 Gyson's Bag 4:58
4 The Turk's Bolero 2:49
5 The Girl And The Turk 4:03
6 Muvaffak's Pad 6:19
7 Just Friends 4:14
8 I'm A Fool To Want You 4:23
9 Blues For K. 4:59
10 Like Someone In Love 4:23
11 Just You, Just Me 2:36
12 Foot Patting 6:14
13 Please Send Me Someone To Love 5:27
14 Deep Eight 5:22
15 The JAMF's Are Coming 6:44
16 Lady Heavy Bottom's Waltz 4:58
 
Лог создания рипа
Exact Audio Copy V1.0 beta 3 from 29. August 2011
EAC extraction logfile from 10. May 2015, 22:05
Johnny Griffin / Griff’n’Bags
Used drive : Optiarc DVD RW AD-7640S Adapter: 0 ID: 1
Read mode : Secure
Utilize accurate stream : Yes
Defeat audio cache : Yes
Make use of C2 pointers : No
Read offset correction : 6
Overread into Lead-In and Lead-Out : No
Fill up missing offset samples with silence : Yes
Delete leading and trailing silent blocks : No
Null samples used in CRC calculations : Yes
Used interface : Native Win32 interface for Win NT & 2000
Used output format : User Defined Encoder
Selected bitrate : 192 kBit/s
Quality : High
Add ID3 tag : No
Command line compressor : C:\Program Files\FLAC\FLAC frontend.exe
Additional command line options : - 8 "Artist=%artist%" -w "Title=%title%" -w "Album=%albumtitle%" -w Year=%year%" -w "Track=%tracknr%" -w "Genre=%genre%" -h %source% %dest%
TOC of the extracted CD
Track | Start | Length | Start sector | End sector
---------------------------------------------------------
1 | 0:00.00 | 5:01.02 | 0 | 22576
2 | 5:01.02 | 2:49.33 | 22577 | 35284
3 | 7:50.35 | 5:01.32 | 35285 | 57891
4 | 12:51.67 | 2:50.53 | 57892 | 70694
5 | 15:42.45 | 4:04.02 | 70695 | 88996
6 | 19:46.47 | 6:22.68 | 88997 | 117714
7 | 26:09.40 | 4:16.65 | 117715 | 136979
8 | 30:26.30 | 4:25.30 | 136980 | 156884
9 | 34:51.60 | 5:01.35 | 156885 | 179494
10 | 39:53.20 | 4:25.22 | 179495 | 199391
11 | 44:18.42 | 2:39.30 | 199392 | 211346
12 | 46:57.72 | 6:16.28 | 211347 | 239574
13 | 53:14.25 | 5:29.35 | 239575 | 264284
14 | 58:43.60 | 5:23.65 | 264285 | 288574
15 | 64:07.50 | 6:46.30 | 288575 | 319054
16 | 70:54.05 | 4:56.02 | 319055 | 341256
Range status and errors
Selected range
Filename C:\Users\Андрей\Desktop\Johnny Griffin – Griff’n’Bags – Rearward\Johnny Griffin - Griff’n’Bags.wav
Peak level 98.1 %
Extraction speed 2.2 X
Range quality 100.0 %
Test CRC 17ECD411
Copy CRC 17ECD411
Copy OK
No errors occurred
AccurateRip summary
Track 1 accurately ripped (confidence 2) [CA52D502] (AR v2)
Track 2 accurately ripped (confidence 2) [2775FF42] (AR v2)
Track 3 accurately ripped (confidence 2) [A90B4D94] (AR v2)
Track 4 accurately ripped (confidence 2) [72603E9C] (AR v2)
Track 5 accurately ripped (confidence 2) [1E0ED503] (AR v2)
Track 6 accurately ripped (confidence 2) [4D40DE6A] (AR v2)
Track 7 accurately ripped (confidence 2) [A005F059] (AR v2)
Track 8 accurately ripped (confidence 2) [5552162D] (AR v2)
Track 9 accurately ripped (confidence 2) [E5B48D43] (AR v2)
Track 10 accurately ripped (confidence 2) [E1EBDABF] (AR v2)
Track 11 accurately ripped (confidence 2) [3C886B3E] (AR v2)
Track 12 accurately ripped (confidence 2) [13B5115C] (AR v2)
Track 13 accurately ripped (confidence 2) [F99E65DB] (AR v2)
Track 14 accurately ripped (confidence 2) [5922ACC5] (AR v2)
Track 15 accurately ripped (confidence 2) [5690079C] (AR v2)
Track 16 accurately ripped (confidence 2) [9DD70055] (AR v2)
All tracks accurately ripped
End of status report
------------------------------------------------------------
Exact Audio Copy V1.0 beta 3 from 29. August 2011
EAC extraction logfile from 10. May 2015, 22:05
Johnny Griffin / Griff’n’Bags
Used drive : Optiarc DVD RW AD-7640S Adapter: 0 ID: 1
Read mode : Secure
Utilize accurate stream : Yes
Defeat audio cache : Yes
Make use of C2 pointers : No
Read offset correction : 6
Overread into Lead-In and Lead-Out : No
Fill up missing offset samples with silence : Yes
Delete leading and trailing silent blocks : No
Null samples used in CRC calculations : Yes
Used interface : Native Win32 interface for Win NT & 2000
Used output format : User Defined Encoder
Selected bitrate : 192 kBit/s
Quality : High
Add ID3 tag : No
Command line compressor : C:\Program Files\FLAC\FLAC frontend.exe
Additional command line options : - 8 "Artist=%artist%" -w "Title=%title%" -w "Album=%albumtitle%" -w Year=%year%" -w "Track=%tracknr%" -w "Genre=%genre%" -h %source% %dest%
TOC of the extracted CD
Track | Start | Length | Start sector | End sector
---------------------------------------------------------
1 | 0:00.00 | 5:01.02 | 0 | 22576
2 | 5:01.02 | 2:49.33 | 22577 | 35284
3 | 7:50.35 | 5:01.32 | 35285 | 57891
4 | 12:51.67 | 2:50.53 | 57892 | 70694
5 | 15:42.45 | 4:04.02 | 70695 | 88996
6 | 19:46.47 | 6:22.68 | 88997 | 117714
7 | 26:09.40 | 4:16.65 | 117715 | 136979
8 | 30:26.30 | 4:25.30 | 136980 | 156884
9 | 34:51.60 | 5:01.35 | 156885 | 179494
10 | 39:53.20 | 4:25.22 | 179495 | 199391
11 | 44:18.42 | 2:39.30 | 199392 | 211346
12 | 46:57.72 | 6:16.28 | 211347 | 239574
13 | 53:14.25 | 5:29.35 | 239575 | 264284
14 | 58:43.60 | 5:23.65 | 264285 | 288574
15 | 64:07.50 | 6:46.30 | 288575 | 319054
16 | 70:54.05 | 4:56.02 | 319055 | 341256
Range status and errors
Selected range
Filename C:\Users\Андрей\Desktop\Johnny Griffin – Griff’n’Bags – Rearward\Johnny Griffin - Griff’n’Bags.wav
Peak level 98.1 %
Extraction speed 2.2 X
Range quality 100.0 %
Test CRC 17ECD411
Copy CRC 17ECD411
Copy OK
No errors occurred
AccurateRip summary
Track 1 accurately ripped (confidence 2) [CA52D502] (AR v2)
Track 2 accurately ripped (confidence 2) [2775FF42] (AR v2)
Track 3 accurately ripped (confidence 2) [A90B4D94] (AR v2)
Track 4 accurately ripped (confidence 2) [72603E9C] (AR v2)
Track 5 accurately ripped (confidence 2) [1E0ED503] (AR v2)
Track 6 accurately ripped (confidence 2) [4D40DE6A] (AR v2)
Track 7 accurately ripped (confidence 2) [A005F059] (AR v2)
Track 8 accurately ripped (confidence 2) [5552162D] (AR v2)
Track 9 accurately ripped (confidence 2) [E5B48D43] (AR v2)
Track 10 accurately ripped (confidence 2) [E1EBDABF] (AR v2)
Track 11 accurately ripped (confidence 2) [3C886B3E] (AR v2)
Track 12 accurately ripped (confidence 2) [13B5115C] (AR v2)
Track 13 accurately ripped (confidence 2) [F99E65DB] (AR v2)
Track 14 accurately ripped (confidence 2) [5922ACC5] (AR v2)
Track 15 accurately ripped (confidence 2) [5690079C] (AR v2)
Track 16 accurately ripped (confidence 2) [9DD70055] (AR v2)
All tracks accurately ripped
End of status report
 
Содержание индексной карты (.CUE)
REM GENRE Jazz
REM DATE 1998
REM DISCID F811C610
REM COMMENT "ExactAudioCopy v1.0b3"
PERFORMER "Johnny Griffin "
TITLE "Griff’n’Bags"
FILE "Johnny Griffin - Griff’n’Bags.flac" WAVE
TRACK 01 AUDIO
TITLE "Gamal Sady’n’Em"
PERFORMER "Johnny Griffin "
INDEX 01 00:00:00
TRACK 02 AUDIO
TITLE "Lonely Girl"
PERFORMER "Johnny Griffin "
INDEX 00 04:59:02
INDEX 01 05:01:02
TRACK 03 AUDIO
TITLE "Gyson’s Bag"
PERFORMER "Johnny Griffin "
INDEX 00 07:49:57
INDEX 01 07:50:35
TRACK 04 AUDIO
TITLE "The Turk’s Bolero"
PERFORMER "Johnny Griffin "
INDEX 00 12:49:02
INDEX 01 12:51:67
TRACK 05 AUDIO
TITLE "The Girl And The Turk"
PERFORMER "Johnny Griffin "
INDEX 00 15:41:22
INDEX 01 15:42:45
TRACK 06 AUDIO
TITLE "Muvaffak’s Pad"
PERFORMER "Johnny Griffin "
INDEX 00 19:46:17
INDEX 01 19:46:47
TRACK 07 AUDIO
TITLE "Just Friends"
PERFORMER "Johnny Griffin "
INDEX 00 26:05:60
INDEX 01 26:09:40
TRACK 08 AUDIO
TITLE "I’m A Fool To Want You"
PERFORMER "Johnny Griffin "
INDEX 00 30:24:32
INDEX 01 30:26:30
TRACK 09 AUDIO
TITLE "Blues For K."
PERFORMER "Johnny Griffin "
INDEX 00 34:50:22
INDEX 01 34:51:60
TRACK 10 AUDIO
TITLE "Like Someone In Love"
PERFORMER "Johnny Griffin "
INDEX 00 39:51:34
INDEX 01 39:53:20
TRACK 11 AUDIO
TITLE "Just You, Just Me"
PERFORMER "Johnny Griffin "
INDEX 00 44:16:50
INDEX 01 44:18:42
TRACK 12 AUDIO
TITLE "Foot Patting"
PERFORMER "Johnny Griffin "
INDEX 00 46:54:50
INDEX 01 46:57:72
TRACK 13 AUDIO
TITLE "Please Send Me Someone To Love"
PERFORMER "Johnny Griffin "
INDEX 00 53:12:62
INDEX 01 53:14:25
TRACK 14 AUDIO
TITLE "Deep Eight"
PERFORMER "Johnny Griffin "
INDEX 00 58:42:07
INDEX 01 58:43:60
TRACK 15 AUDIO
TITLE "The JAMF’s Are Coming"
PERFORMER "Johnny Griffin "
INDEX 00 64:06:20
INDEX 01 64:07:50
TRACK 16 AUDIO
TITLE "Lady Heavy Bottom’s Waltz"
PERFORMER "Johnny Griffin "
INDEX 00 70:51:69
INDEX 01 70:54:05
Any questions -> support@pro-jazz.com. По всем вопросам пишите -> support@pro-jazz.com
11:38
170
Нет комментариев. Ваш будет первым!