Вы используете незарегистрированную версию компонента "Вкладки"!

Поиск

(Post-Bop / Modern Creative) Kurt Rosenwinkel - The Enemies of Energy - 2000, FLAC (tracks+.cue), lossless

(Post-Bop / Modern Creative) Kurt Rosenwinkel - The Enemies of Energy - 2000, FLAC (tracks+.cue), lossless
Треклист:
Kurt Rosenwinkel - The Enemies of Energy
Жанр: Post-Bop / Modern Creative
Год выпуска : 2000
Лейбл: Verve
Аудио кодек: FLAC
Тип рипа: tracks+.cue
Битрейт аудио: lossless
Продолжительность: 01:00:34
Рип: moonlapse - What CD


01. The Enemies of Energy (7:53)
02. Grant (6:22)
03. Cubism (5:48)
04. Number Ten (7:29)
05. The Polish Song (3:22)
06. Point of View (2:24)
07. Christmas Song (4:47)
08. Dream of the Old (10:22)
09. Synthetics (5:15)
10. Hope and Fear (6:52)

 
EAC
EAC extraction logfile from 25. May 2008, 18:27 for CD
Kurt Rosenwinkel / The Enemies of Energy
Used drive : PIONEER DVD-RW DVR-112D Adapter: 0 ID: 0
Read mode : Secure with NO C2, accurate stream, disable cache
Read offset correction : 48
Overread into Lead-In and Lead-Out : No
Used output format : C:\Program Files\Exact Audio Copy\flac-1.1.4-win\bin\flac.exe (User Defined Encoder)
128 kBit/s
Additional command line options : -8 -V -T "ARTIST=%a" -T "TITLE=%t" -T "ALBUM=%g" -T "DATE=%y" -T "TRACKNUMBER=%n" -T "GENRE=%m" -T "COMMENT=EAC Flac 1.1.4 -8" %s
Other options :
Fill up missing offset samples with silence : Yes
Delete leading and trailing silent blocks : No
Installed external ASPI interface
Track 1
Filename C:\Program Files\Exact Audio Copy\Kurt Rosenwinkel - 2000 - The Enemies of Energy\01 - The Enemies of Energy.wav
Pre-gap length 0:00:02.00
Peak level 95.5 %
Track quality 100.0 %
Test CRC BC0ABE3A
Copy CRC BC0ABE3A
Copy OK
Track 2
Filename C:\Program Files\Exact Audio Copy\Kurt Rosenwinkel - 2000 - The Enemies of Energy\02 - Grant.wav
Peak level 91.7 %
Track quality 100.0 %
Test CRC 089056F1
Copy CRC 089056F1
Copy OK
Track 3
Filename C:\Program Files\Exact Audio Copy\Kurt Rosenwinkel - 2000 - The Enemies of Energy\03 - Cubism.wav
Peak level 94.6 %
Track quality 100.0 %
Test CRC 4412B1F5
Copy CRC 4412B1F5
Copy OK
Track 4
Filename C:\Program Files\Exact Audio Copy\Kurt Rosenwinkel - 2000 - The Enemies of Energy\04 - Number Ten.wav
Peak level 93.7 %
Track quality 100.0 %
Test CRC 65FA339B
Copy CRC 65FA339B
Copy OK
Track 5
Filename C:\Program Files\Exact Audio Copy\Kurt Rosenwinkel - 2000 - The Enemies of Energy\05 - The Polish Song.wav
Peak level 70.6 %
Track quality 100.0 %
Test CRC 4EA49904
Copy CRC 4EA49904
Copy OK
Track 6
Filename C:\Program Files\Exact Audio Copy\Kurt Rosenwinkel - 2000 - The Enemies of Energy\06 - Point of View.wav
Peak level 90.3 %
Track quality 100.0 %
Test CRC 288B77FB
Copy CRC 288B77FB
Copy OK
Track 7
Filename C:\Program Files\Exact Audio Copy\Kurt Rosenwinkel - 2000 - The Enemies of Energy\07 - Christmas Song.wav
Peak level 94.1 %
Track quality 100.0 %
Test CRC E4EF9E4A
Copy CRC E4EF9E4A
Copy OK
Track 8
Filename C:\Program Files\Exact Audio Copy\Kurt Rosenwinkel - 2000 - The Enemies of Energy\08 - Dream of the Old.wav
Peak level 95.3 %
Track quality 99.9 %
Test CRC A574705F
Copy CRC A574705F
Copy OK
Track 9
Filename C:\Program Files\Exact Audio Copy\Kurt Rosenwinkel - 2000 - The Enemies of Energy\09 - Synthetics.wav
Peak level 96.6 %
Track quality 100.0 %
Test CRC EC5B1C56
Copy CRC EC5B1C56
Copy OK
Track 10
Filename C:\Program Files\Exact Audio Copy\Kurt Rosenwinkel - 2000 - The Enemies of Energy\10 - Hope and Fear.wav
Peak level 97.0 %
Track quality 100.0 %
Test CRC 6985CA8F
Copy CRC 6985CA8F
Copy OK
No errors occured
End of status report
 
CUE
REM GENRE Jazz
REM DATE 2000
REM DISCID 850E320A
REM COMMENT "ExactAudioCopy v0.95b4"
PERFORMER "Kurt Rosenwinkel"
TITLE "The Enemies of Energy"
FILE "01 - The Enemies of Energy.wav" WAVE
TRACK 01 AUDIO
TITLE "The Enemies of Energy"
PERFORMER "Kurt Rosenwinkel"
INDEX 01 00:00:00
FILE "02 - Grant.wav" WAVE
TRACK 02 AUDIO
TITLE "Grant"
PERFORMER "Kurt Rosenwinkel"
INDEX 01 00:00:00
FILE "03 - Cubism.wav" WAVE
TRACK 03 AUDIO
TITLE "Cubism"
PERFORMER "Kurt Rosenwinkel"
INDEX 01 00:00:00
FILE "04 - Number Ten.wav" WAVE
TRACK 04 AUDIO
TITLE "Number Ten"
PERFORMER "Kurt Rosenwinkel"
INDEX 01 00:00:00
FILE "05 - The Polish Song.wav" WAVE
TRACK 05 AUDIO
TITLE "The Polish Song"
PERFORMER "Kurt Rosenwinkel"
INDEX 01 00:00:00
FILE "06 - Point of View.wav" WAVE
TRACK 06 AUDIO
TITLE "Point of View"
PERFORMER "Kurt Rosenwinkel"
INDEX 01 00:00:00
FILE "07 - Christmas Song.wav" WAVE
TRACK 07 AUDIO
TITLE "Christmas Song"
PERFORMER "Kurt Rosenwinkel"
INDEX 01 00:00:00
FILE "08 - Dream of the Old.wav" WAVE
TRACK 08 AUDIO
TITLE "Dream of the Old"
PERFORMER "Kurt Rosenwinkel"
INDEX 01 00:00:00
FILE "09 - Synthetics.wav" WAVE
TRACK 09 AUDIO
TITLE "Synthetics"
PERFORMER "Kurt Rosenwinkel"
INDEX 01 00:00:00
FILE "10 - Hope and Fear.wav" WAVE
TRACK 10 AUDIO
TITLE "Hope and Fear"
PERFORMER "Kurt Rosenwinkel"
INDEX 01 00:00:00
 
Спектр пары треков


Kurt Rosenwinkel - vocals, acoustic & electric guitar
Mark Turner - tenor saxophone
Scott Kinsey - piano, keyboards
Ben Street - bass
Jeff Ballard - drums
Any questions -> support@pro-jazz.com. По всем вопросам пишите -> support@pro-jazz.com
17:01
260
Нет комментариев. Ваш будет первым!