Вы используете незарегистрированную версию компонента "Вкладки"!

Поиск

(Avant-Garde / Structured Improvisation) Lawrence D. "Butch" Morris - Testament: A Conduction Collection (10 CDs) - 1995, FLAC (image+.cue), lossless

(Avant-Garde / Structured Improvisation) Lawrence D. "Butch" Morris - Testament: A Conduction Collection (10 CDs) - 1995, FLAC (image+.cue), lossless
Треклист:
Lawrence D. "Butch" Morris - Testament: A Conduction Collection (10 CDs)
Жанр: Avant-Garde / Structured Improvisation
 
Info
"Conducting is no longer a mere method for an interpretation, but an actual part of the process of composition. Conduction is a means by which a conductor may compose, (re)orchestrate, (re)arrange and sculpt both notated and non-notated music. Using a vocabulary of signs and gestures, many within the general glossary of traditional conducting, the conductor may alter or initiate rhythm, melody, and harmony; develop form and structure; and instantaneously change articulation, phrasing, and meter. Conduction is a viable musical tool for the improvising ensemble." ~Butch Morris



 
Conduction #11: Where Music Goes
Conduction #11: Where Music Goes
Год выпуска диска: 1995
Производитель диска: New World Records 80479 (USA)
Аудио кодек: FLAC
Тип рипа: image+.cue
Битрейт аудио: lossless
Продолжительность:
ROVA PreEchoes Ensemble: Bruce Ackley (soprano saxophone), Dave Barrett (alto saxophone), Larry Ochs (saxophone), Jon Raskin (alto saxophone, baritone saxophone); Chris Brown (electric percussion piano), J.A. Deane (trombone, electronics), Jon English (bass), Jon Jang (piano), Bill Horvitz (electric guitar), BlK lion (guitar, electronics), Kash Killion (cello), Kaila Flexer (violin), Hal Hughes (violin), William Winant (percussion)
Conduction #11: Where Music Goes
1. Part I
2. Part II
The Great American Music Hall, San Francisco, CA, December 18, 1988.
Sponsored by ROVA Saxophone Quartet.
 
EAC Report
Exact Audio Copy V0.99 prebeta 5 from 4. May 2009
EAC extraction logfile from 25. November 2009, 22:26
Lawrence D. "Butch" Morris / Conduction #11
Used drive : TSSTcorpCD/DVDW SH-S182M Adapter: 2 ID: 0
Read mode : Secure
Utilize accurate stream : Yes
Defeat audio cache : Yes
Make use of C2 pointers : No
Read offset correction : 6
Overread into Lead-In and Lead-Out : No
Fill up missing offset samples with silence : Yes
Delete leading and trailing silent blocks : No
Null samples used in CRC calculations : Yes
Used interface : Installed external ASPI interface
Used output format : User Defined Encoder
Selected bitrate : 1024 kBit/s
Quality : High
Add ID3 tag : No
Command line compressor : C:\Program Files\FLAC\flac.exe
Additional command line options : -6 -V -T "ARTIST=%a" -T "TITLE=%t" -T "ALBUM=%g" -T "DATE=%y" -T "TRACKNUMBER=%n" -T "GENRE=%m" -T "COMMENT=EAC FLAC -6" %s
TOC of the extracted CD
Track | Start | Length | Start sector | End sector
---------------------------------------------------------
1 | 0:00.00 | 19:33.52 | 0 | 88026
2 | 19:33.52 | 32:16.00 | 88027 | 233226
Range status and errors
Selected range
Filename C:\Documents and Settings\Igor\My Documents\My Music\eac\Butch Morris - Conduction 11.wav
Peak level 94.2 %
Range quality 100.0 %
Test CRC 95383670
Copy CRC 95383670
Copy OK
No errors occurred
AccurateRip summary
Track 1 not present in database
Track 2 not present in database
None of the tracks are present in the AccurateRip database
End of status report
 
Conduction #15: Where Music Goes II
Conduction #15: Where Music Goes II
Год выпуска диска: 1995
Производитель диска: New World Records 80480 (USA)
Аудио кодек: FLAC
Тип рипа: image+.cue
Битрейт аудио: lossless
Продолжительность: 1:08:10
Arthur Blythe (alto sax, guest artist), Thurman Barker (vibraphone, percussion), Marion Brandis (flute, alto flute, piccolo), Vincent Chancey (French horn), Curtis Clark (piano), J. A. Deane (trombone, electronics, live sampling), Janet Grice (bassoon), Bill Horvitz (electric guitar), Jason Hwang (violin), Taylor McLean (percussion, glockenspiel), Jemeel Moondoc (flute), Zeena Parkins (harp), Brandon Ross (acoustic guitar, octave guitar)
Conduction #15: Where Music Goes II
1. Part I
2. Part II
3. Part III
Whitney Museum of American Art, New York City; November 15 and 16, 1989.
 
EAC Report
Exact Audio Copy V0.99 prebeta 5 from 4. May 2009
EAC extraction logfile from 25. November 2009, 23:02
Lawrence D. "Butch" Morris / Conduction #15
Used drive : TSSTcorpCD/DVDW SH-S182M Adapter: 2 ID: 0
Read mode : Secure
Utilize accurate stream : Yes
Defeat audio cache : Yes
Make use of C2 pointers : No
Read offset correction : 6
Overread into Lead-In and Lead-Out : No
Fill up missing offset samples with silence : Yes
Delete leading and trailing silent blocks : No
Null samples used in CRC calculations : Yes
Used interface : Installed external ASPI interface
Used output format : User Defined Encoder
Selected bitrate : 1024 kBit/s
Quality : High
Add ID3 tag : No
Command line compressor : C:\Program Files\FLAC\flac.exe
Additional command line options : -6 -V -T "ARTIST=%a" -T "TITLE=%t" -T "ALBUM=%g" -T "DATE=%y" -T "TRACKNUMBER=%n" -T "GENRE=%m" -T "COMMENT=EAC FLAC -6" %s
TOC of the extracted CD
Track | Start | Length | Start sector | End sector
---------------------------------------------------------
1 | 0:00.00 | 21:38.10 | 0 | 97359
2 | 21:38.10 | 11:08.27 | 97360 | 147486
3 | 32:46.37 | 35:23.13 | 147487 | 306724
Range status and errors
Selected range
Filename C:\Documents and Settings\Igor\My Documents\My Music\eac\Butch Morris - Conduction 15.wav
Peak level 98.6 %
Range quality 100.0 %
Test CRC 5982357C
Copy CRC 5982357C
Copy OK
No errors occurred
AccurateRip summary
Track 1 not present in database
Track 2 not present in database
Track 3 not present in database
None of the tracks are present in the AccurateRip database
End of status report
 
Conduction #22: Documenta: Gloves & Mitts
Conduction #22: Documenta: Gloves & Mitts
Год выпуска диска: 1995
Производитель диска: New World Records 80481 (USA)
Аудио кодек: FLAC
Тип рипа: image+.cue
Битрейт аудио: lossless
Продолжительность: 47:25
Christian Marclay (records and turntables), Lê Quan Ninh (percussion), J. A. Deane (trombone, electronics, live sampling), Martin Schütz (cello), Günter Müller (drums, electronics), Lawrence D. "Butch" Morris (cornet)
Conduction #22: Documenta: Gloves & Mitts
1. Part I
Documenta 9, Kassel, Germany; June 14, 1992
 
EAC Report
Exact Audio Copy V0.99 prebeta 5 from 4. May 2009
EAC extraction logfile from 25. November 2009, 23:23
Lawrence D. "Butch" Morris / Conduction #22
Used drive : TSSTcorpCD/DVDW SH-S182M Adapter: 2 ID: 0
Read mode : Secure
Utilize accurate stream : Yes
Defeat audio cache : Yes
Make use of C2 pointers : No
Read offset correction : 6
Overread into Lead-In and Lead-Out : No
Fill up missing offset samples with silence : Yes
Delete leading and trailing silent blocks : No
Null samples used in CRC calculations : Yes
Used interface : Installed external ASPI interface
Used output format : User Defined Encoder
Selected bitrate : 1024 kBit/s
Quality : High
Add ID3 tag : No
Command line compressor : C:\Program Files\FLAC\flac.exe
Additional command line options : -6 -V -T "ARTIST=%a" -T "TITLE=%t" -T "ALBUM=%g" -T "DATE=%y" -T "TRACKNUMBER=%n" -T "GENRE=%m" -T "COMMENT=EAC FLAC -6" %s
TOC of the extracted CD
Track | Start | Length | Start sector | End sector
---------------------------------------------------------
1 | 0:00.00 | 47:24.70 | 0 | 213369
Range status and errors
Selected range
Filename C:\Documents and Settings\Igor\My Documents\My Music\eac\Butch Morris - Conduction 22.wav
Peak level 100.0 %
Range quality 100.0 %
Test CRC 4E4BD840
Copy CRC 4E4BD840
Copy OK
No errors occurred
AccurateRip summary
Track 1 not present in database
None of the tracks are present in the AccurateRip database
End of status report
 
Conduction #23: Quinzaine de Montreal
Conduction #23: Quinzaine de Montreal
Год выпуска диска: 1995
Производитель диска: New World Records 80482 (USA)
Аудио кодек: FLAC
Тип рипа: image+.cue
Битрейт аудио: lossless
Продолжительность: 43:26
Tristan Honsinger (cello), Martin Schütz (cello), Eric Longsworth (cello), Michelle Kinney (hybrid broom-cello), Ken Butler (hybrid broom-cello), Helmut Lipsky (violin), J.A. Deane (trombone, electronics, live sampling), Guillaume Dostaler (piano), Mike Milligan (bass), Pierre Dubé (percussion)
Conduction #23: Quinzaine de Montreal
1. Part I
The Spectrum, Montreal, Quebec, Canada; April 11, 1992
 
EAC Report
Exact Audio Copy V0.99 prebeta 5 from 4. May 2009
EAC extraction logfile from 26. November 2009, 0:09
Lawrence D. "Butch" Morris / Conduction #23
Used drive : TSSTcorpCD/DVDW SH-S182M Adapter: 2 ID: 0
Read mode : Secure
Utilize accurate stream : Yes
Defeat audio cache : Yes
Make use of C2 pointers : No
Read offset correction : 6
Overread into Lead-In and Lead-Out : No
Fill up missing offset samples with silence : Yes
Delete leading and trailing silent blocks : No
Null samples used in CRC calculations : Yes
Used interface : Installed external ASPI interface
Used output format : User Defined Encoder
Selected bitrate : 1024 kBit/s
Quality : High
Add ID3 tag : No
Command line compressor : C:\Program Files\FLAC\flac.exe
Additional command line options : -6 -V -T "ARTIST=%a" -T "TITLE=%t" -T "ALBUM=%g" -T "DATE=%y" -T "TRACKNUMBER=%n" -T "GENRE=%m" -T "COMMENT=EAC FLAC -6" %s
TOC of the extracted CD
Track | Start | Length | Start sector | End sector
---------------------------------------------------------
1 | 0:00.00 | 43:25.40 | 0 | 195414
Range status and errors
Selected range
Filename C:\Documents and Settings\Igor\My Documents\My Music\eac\Butch Morris - Conduction 23.wav
Peak level 94.7 %
Range quality 100.0 %
Test CRC BDD03D56
Copy CRC BDD03D56
Copy OK
No errors occurred
AccurateRip summary
Track 1 not present in database
None of the tracks are present in the AccurateRip database
End of status report
 
Conduction #25: The Akbank Conduction; Conduction #26: Akbank II

Conduction #25: The Akbank Conduction
Conduction #26: Akbank II
Год выпуска диска: 1995
Производитель диска: New World Records 80483 (USA)
Аудио кодек: FLAC
Тип рипа: image+.cue
Битрейт аудио: lossless
Продолжительность: 52:05
The Süleyman Erguner Ensemble: Hasan Esen (kemence), Mehmet Emin Bitmez (ud), Göksel Baktagir (kanun), Süleyman Erguner (ney); Lê Quan Ninh (percussion), Bryan Carrott (vibraphone), J. A. Deane (trombone, electronics, drum machine), Elizabeth Panzer (harp), Brandon Ross (acoustic guitar), Steve Colson (piano), Hugh Ragin (pocket trumpet)
1. Conduction #25
2. Conduction #26, E
Istanbul, Turkey; October 16 & 17, 1992
 
EAC Report
Exact Audio Copy V0.99 prebeta 5 from 4. May 2009
EAC extraction logfile from 26. November 2009, 15:32
Lawrence D. "Butch" Morris / Conductions #25 & #26
Used drive : TSSTcorpCD/DVDW SH-S182M Adapter: 2 ID: 0
Read mode : Secure
Utilize accurate stream : Yes
Defeat audio cache : Yes
Make use of C2 pointers : No
Read offset correction : 6
Overread into Lead-In and Lead-Out : No
Fill up missing offset samples with silence : Yes
Delete leading and trailing silent blocks : No
Null samples used in CRC calculations : Yes
Used interface : Installed external ASPI interface
Used output format : User Defined Encoder
Selected bitrate : 1024 kBit/s
Quality : High
Add ID3 tag : No
Command line compressor : C:\Program Files\FLAC\flac.exe
Additional command line options : -6 -V -T "ARTIST=%a" -T "TITLE=%t" -T "ALBUM=%g" -T "DATE=%y" -T "TRACKNUMBER=%n" -T "GENRE=%m" -T "COMMENT=EAC FLAC -6" %s
TOC of the extracted CD
Track | Start | Length | Start sector | End sector
---------------------------------------------------------
1 | 0:00.00 | 45:00.25 | 0 | 202524
2 | 45:00.25 | 7:04.45 | 202525 | 234369
Range status and errors
Selected range
Filename F:\backup\My Music\eac\Butch Morris - Conductions 25 & 26.wav
Peak level 90.9 %
Range quality 100.0 %
Test CRC 4A84CF36
Copy CRC 4A84CF36
Copy OK
No errors occurred
AccurateRip summary
Track 1 not present in database
Track 2 not present in database
None of the tracks are present in the AccurateRip database
End of status report
 
Conduction #28: Cherry Blossom; Conduction #31: Angelica

Conduction #28: Cherry Blossom
Conduction #31: Angelica
Год выпуска диска: 1995
Производитель диска: New World Records 80484 (USA)
Аудио кодек: FLAC
Тип рипа: image+.cue
Битрейт аудио: lossless
Продолжительность: 1:11:04
Yukihiro Isso (nokan), Shonosuke Okura (ohtsuzumi), Makiko Sakurai (shomyo, music box), Michihiro Sato (tugaru syamisen), Kizan Daiyoshi (shakuhachi), Haruna Miyake (piano), Asuka Kaneko (voice), Shuichi Chino (computer), Koichi Makigami (voice), Yoshihide Otomo (turntables, CD player), Kazutoki Umezu (bass clarinet), Sachiko Nagata (percussion), Motoharu Yoshizawa (electric vertical bass), Kazuo Oono (Butoh dance), Koichi Tamano (Butoh dance)
1. Conduction #28, Part II-X
2. Conduction #28, E
P3 Art and Environment, Tokyo, Japan; March 28, 1993
Dietmar Diesner (soprano sax), Peter Kowald (bass), Wolter Wierbos (trombone), Steve Beresford (piano), Hans Reichel (guitar, daxophone), Tom Cora (cello), Han Bennink (drums), Catherine Jauniaux (voice), Ikue Mori (drum machines)
3. Conduction #31
Angelica Festival of International Music, Bologna, Italy; May 16, 1993
 
EAC Report
Exact Audio Copy V0.99 prebeta 5 from 4. May 2009
EAC extraction logfile from 26. November 2009, 16:17
Lawrence D. "Butch" Morris / Conductions #28 & #31
Used drive : TSSTcorpCD/DVDW SH-S182M Adapter: 2 ID: 0
Read mode : Secure
Utilize accurate stream : Yes
Defeat audio cache : Yes
Make use of C2 pointers : No
Read offset correction : 6
Overread into Lead-In and Lead-Out : No
Fill up missing offset samples with silence : Yes
Delete leading and trailing silent blocks : No
Null samples used in CRC calculations : Yes
Used interface : Installed external ASPI interface
Used output format : User Defined Encoder
Selected bitrate : 1024 kBit/s
Quality : High
Add ID3 tag : No
Command line compressor : C:\Program Files\FLAC\flac.exe
Additional command line options : -6 -V -T "ARTIST=%a" -T "TITLE=%t" -T "ALBUM=%g" -T "DATE=%y" -T "TRACKNUMBER=%n" -T "GENRE=%m" -T "COMMENT=EAC FLAC -6" %s
TOC of the extracted CD
Track | Start | Length | Start sector | End sector
---------------------------------------------------------
1 | 0:00.00 | 21:00.50 | 0 | 94549
2 | 21:00.50 | 3:06.02 | 94550 | 108501
3 | 24:06.52 | 46:57.30 | 108502 | 319806
Range status and errors
Selected range
Filename F:\backup\My Music\eac\Butch Morris - Conductions 28 & 31.wav
Peak level 99.9 %
Range quality 100.0 %
Test CRC F68EC9B7
Copy CRC F68EC9B7
Copy OK
No errors occurred
AccurateRip summary
Track 1 not present in database
Track 2 not present in database
Track 3 not present in database
None of the tracks are present in the AccurateRip database
End of status report
 
Conduction #31: Angelica; Conduction #35: American Connection 4; Conduction #36: American Connection 4

Conduction #31: Angelica
Conduction #35: American Connection 4
Conduction #36: American Connection 4
Год выпуска диска: 1995
Производитель диска: New World Records 80485 (USA)
Аудио кодек: FLAC
Тип рипа: image+.cue
Битрейт аудио: lossless
Продолжительность: 1:04:10
Dietmar Diesner (soprano sax), Peter Kowald (bass), Wolter Wierbos (trombone), Steve Beresford (piano), Hans Reichel (guitar, daxophone), Tom Cora (cello), Han Bennink (drums), Catherine Jauniaux (voice), Ikue Mori (drum machines)
1. Conduction #31: Angelica, E I
2. Conduction #31: Angelica, E II
Angelica Festival of International Music, Bologna, Italy; May 16, 1993
Maarten Altena (contrabass), Michael Barker (recorder, blockflutes), Peter van Bergen (bass clarinet, tenor saxophone), Wiek Hijmans (electric guitar), Alison Isadora (violin), Jannie Pranger (voice), Michael Vatcher (percussion), Wolter Wierbos (trombone), Michiel Scheen (piano)
3. Conduction #35: American Connection 4, Part I
4. Conduction #35: American Connection 4, Part II
Antwerp, Belgium; May 26, 1993
5. Conduction #36: American Connection 4
6. Conduction #36: American Connection 4, E
Amsterdam, Holland; May 27, 1993
 
EAC Report
Exact Audio Copy V0.99 prebeta 5 from 4. May 2009
EAC extraction logfile from 26. November 2009, 15:53
Lawrence D. "Butch" Morris / Conductions #31, #35 & #36
Used drive : TSSTcorpCD/DVDW SH-S182M Adapter: 2 ID: 0
Read mode : Secure
Utilize accurate stream : Yes
Defeat audio cache : Yes
Make use of C2 pointers : No
Read offset correction : 6
Overread into Lead-In and Lead-Out : No
Fill up missing offset samples with silence : Yes
Delete leading and trailing silent blocks : No
Null samples used in CRC calculations : Yes
Used interface : Installed external ASPI interface
Used output format : User Defined Encoder
Selected bitrate : 1024 kBit/s
Quality : High
Add ID3 tag : No
Command line compressor : C:\Program Files\FLAC\flac.exe
Additional command line options : -6 -V -T "ARTIST=%a" -T "TITLE=%t" -T "ALBUM=%g" -T "DATE=%y" -T "TRACKNUMBER=%n" -T "GENRE=%m" -T "COMMENT=EAC FLAC -6" %s
TOC of the extracted CD
Track | Start | Length | Start sector | End sector
---------------------------------------------------------
1 | 0:00.00 | 4:34.02 | 0 | 20551
2 | 4:34.02 | 3:58.10 | 20552 | 38411
3 | 8:32.12 | 24:21.48 | 38412 | 148034
4 | 32:53.60 | 13:01.22 | 148035 | 206631
5 | 45:55.07 | 14:02.15 | 206632 | 269796
6 | 59:57.22 | 4:12.43 | 269797 | 288739
Range status and errors
Selected range
Filename F:\backup\My Music\eac\Butch Morris - Conductions 31, 35 & 36.wav
Peak level 97.0 %
Range quality 100.0 %
Test CRC 9C0DAA41
Copy CRC 9C0DAA41
Copy OK
No errors occurred
AccurateRip summary
Track 1 not present in database
Track 2 not present in database
Track 3 not present in database
Track 4 not present in database
Track 5 not present in database
Track 6 not present in database
None of the tracks are present in the AccurateRip database
End of status report
 
Conduction #38: In Freud's Garden; Conduction #39: Thread Waxing Space; Conduction #40: Thread Waxing Space

Conduction #38: In Freud's Garden
Conduction #39: Thread Waxing Space
Conduction #40: Thread Waxing Space
Год выпуска диска: 1995
Производитель диска: New World Records 80486 (USA)
Аудио кодек: FLAC
Тип рипа: image+.cue
Битрейт аудио: lossless
Продолжительность: 1:03:11
Myra Melford (piano), Zeena Parkins (harp), Bryan Carrott (vibraphone), Brandon Ross (acoustic guitar), J. A. Deane (trombone, electronics, live sampling), Motoharu Yoshizawa (electric vertical bass), Lê Quan Ninh (percussion), Martin Schütz (electric five string cello), Tristan Honsinger (cello), Martine Altenburger (cello), Edgar Laubscher (electric viola), Hans Koch (clarinet, bass clarinet, contrabass clarinet, soprano saxophone, tenor saxophone)
1. Conduction #38: In Freud's Garden
2. Conduction #38: In Freud's Garden, E
Muffathalle, Germany; December 11, 1993
Christian Marclay (turntables), Elliott Sharp (dobro), Chris Cunningham (guitar), Gregor Kitzis (violin), Dana Friedli (violin), Jason Hwang (violin), Myra Melford (piano), Damon Ra Choice (vibraphone, snare drum), Reggie Nicholson (vibraphone, tom-tom), Michelle Kinney (cello), Deidre L. Murray (cello), Elizabeth Panzer (harp), William Parker (bass), Mark Helias (bass), Fred Hopkins (bass)
3. Conduction #39: Thread Waxing Space, E
Thread Waxing Space, New York City; November 11, 1993
Christian Marclay (turntables), Elliott Sharp (dobro), Chris Cunningham (guitar), Dana Friedli (violin), Jason Hwang (violin), Myra Melford (piano), Damon Ra Choice (vibraphone, snare drum), Reggie Nicholson (vibraphone, tom-tom), Michelle Kinney (cello), Elizabeth Panzer (harp), William Parker (bass), Mark Helias (bass)
4. Conduction #40: Thread Waxing Space, E
Thread Waxing Space,New York City; November 12, 1993
 
EAC Report
Exact Audio Copy V0.99 prebeta 5 from 4. May 2009
EAC extraction logfile from 27. November 2009, 16:35
Lawrence D. "Butch" Morris / Conductions #38, #39 & #40
Used drive : TSSTcorpCD/DVDW SH-S182M Adapter: 2 ID: 0
Read mode : Secure
Utilize accurate stream : Yes
Defeat audio cache : Yes
Make use of C2 pointers : No
Read offset correction : 6
Overread into Lead-In and Lead-Out : No
Fill up missing offset samples with silence : Yes
Delete leading and trailing silent blocks : No
Null samples used in CRC calculations : Yes
Used interface : Installed external ASPI interface
Used output format : User Defined Encoder
Selected bitrate : 1024 kBit/s
Quality : High
Add ID3 tag : No
Command line compressor : C:\Program Files\FLAC\flac.exe
Additional command line options : -6 -V -T "ARTIST=%a" -T "TITLE=%t" -T "ALBUM=%g" -T "DATE=%y" -T "TRACKNUMBER=%n" -T "GENRE=%m" -T "COMMENT=EAC FLAC -6" %s
TOC of the extracted CD
Track | Start | Length | Start sector | End sector
---------------------------------------------------------
1 | 0:00.00 | 46:08.37 | 0 | 207636
2 | 46:08.37 | 5:56.08 | 207637 | 234344
3 | 52:04.45 | 3:06.12 | 234345 | 248306
4 | 55:10.57 | 8:00.13 | 248307 | 284319
Range status and errors
Selected range
Filename F:\backup\My Music\eac\Butch Morris - Conductions 38, 39 & 40.wav
Peak level 99.7 %
Range quality 100.0 %
Test CRC 7C1882DB
Copy CRC 7C1882DB
Copy OK
No errors occurred
AccurateRip summary
Track 1 not present in database
Track 2 not present in database
Track 3 not present in database
Track 4 not present in database
None of the tracks are present in the AccurateRip database
End of status report
 
Conduction #41: New World, New World
Conduction #41: New World, New World
Год выпуска диска: 1995
Производитель диска: New World Records 80487 (USA)
Аудио кодек: FLAC
Тип рипа: image+.cue
Битрейт аудио: lossless
Продолжительность: 54:16
Jesse Canterbury (clarinet), Mimi Patterson (clarinet), Scott Deeter (saxophone), Philip Gelb (shakuhachi), Gregor Harvey (guitar), Ethan Schaffner (electric guitar), Elisabeth King (voice), Daniel Raney (trombone), David Tatro (trombone), Michael Titlebaum (alto saxophone)
1. Conduction #41: New World
2. Conduction #41: New World, E I
3. Conduction #41: New World, E II
4. Conduction #41: New World, E III
5. Conduction #41: New World, E IV
Opperman Music Hall, Florida State University School of Music; February 4, 1994
 
EAC Report
Exact Audio Copy V0.99 prebeta 5 from 4. May 2009
EAC extraction logfile from 27. November 2009, 20:10
Lawrence D. "Butch" Morris / Conduction #41
Used drive : TSSTcorpCD/DVDW SH-S182M Adapter: 2 ID: 0
Read mode : Secure
Utilize accurate stream : Yes
Defeat audio cache : Yes
Make use of C2 pointers : No
Read offset correction : 6
Overread into Lead-In and Lead-Out : No
Fill up missing offset samples with silence : Yes
Delete leading and trailing silent blocks : No
Null samples used in CRC calculations : Yes
Used interface : Installed external ASPI interface
Used output format : User Defined Encoder
Selected bitrate : 1024 kBit/s
Quality : High
Add ID3 tag : No
Command line compressor : C:\Program Files\FLAC\flac.exe
Additional command line options : -6 -V -T "ARTIST=%a" -T "TITLE=%t" -T "ALBUM=%g" -T "DATE=%y" -T "TRACKNUMBER=%n" -T "GENRE=%m" -T "COMMENT=EAC FLAC -6" %s
TOC of the extracted CD
Track | Start | Length | Start sector | End sector
---------------------------------------------------------
1 | 0:00.00 | 27:10.40 | 0 | 122289
2 | 27:10.40 | 7:04.52 | 122290 | 154141
3 | 34:15.17 | 5:43.30 | 154142 | 179896
4 | 39:58.47 | 7:52.35 | 179897 | 215331
5 | 47:51.07 | 6:25.08 | 215332 | 244214
Range status and errors
Selected range
Filename F:\backup\My Music\eac\Butch Morris - Conduction 41.wav
Peak level 100.0 %
Range quality 100.0 %
Test CRC A48BBCE8
Copy CRC A48BBCE8
Copy OK
No errors occurred
AccurateRip summary
Track 1 not present in database
Track 2 not present in database
Track 3 not present in database
Track 4 not present in database
Track 5 not present in database
None of the tracks are present in the AccurateRip database
End of status report
 
Conduction #50
Conduction #50
Год выпуска диска: 1995
Производитель диска: New World Records 80488 (USA)
Аудио кодек: FLAC
Тип рипа: image+.cue
Битрейт аудио: lossless
Продолжительность: 1:16:13
Shonosuke Okura (ohtuzumi), Michihiro Sato (tugaru syamisen), Yumiko Tanaka (gidayu), Hikaru Sawai (koto), Kim Dae Hwan (percussion), Yoshihide Otomo (turntables), Keizo Mizoiri (bass), Haruna Miyake (piano), Asuka Kaneko (electric violin), Tomomi Adachi (voice), Motoharu Yoshizawa (electric vertical bass), Ayuo Takahashi (zheng)
1. Conduction #50, Part I
2. Conduction #50, Part II
3. Conduction #50, E I
4. Conduction #50, E II
P3 Art and Environment, Tokyo, Japan; March 5, 1995
 
EAC Report
Exact Audio Copy V0.99 prebeta 5 from 4. May 2009
EAC extraction logfile from 27. November 2009, 21:05
Lawrence D. "Butch" Morris / Conduction #50
Used drive : TSSTcorpCD/DVDW SH-S182M Adapter: 2 ID: 0
Read mode : Secure
Utilize accurate stream : Yes
Defeat audio cache : Yes
Make use of C2 pointers : No
Read offset correction : 6
Overread into Lead-In and Lead-Out : No
Fill up missing offset samples with silence : Yes
Delete leading and trailing silent blocks : No
Null samples used in CRC calculations : Yes
Used interface : Installed external ASPI interface
Used output format : User Defined Encoder
Selected bitrate : 1024 kBit/s
Quality : High
Add ID3 tag : No
Command line compressor : C:\Program Files\FLAC\flac.exe
Additional command line options : -6 -V -T "ARTIST=%a" -T "TITLE=%t" -T "ALBUM=%g" -T "DATE=%y" -T "TRACKNUMBER=%n" -T "GENRE=%m" -T "COMMENT=EAC FLAC -6" %s
TOC of the extracted CD
Track | Start | Length | Start sector | End sector
---------------------------------------------------------
1 | 0:00.00 | 37:16.00 | 0 | 167699
2 | 37:16.00 | 33:47.05 | 167700 | 319729
3 | 71:03.05 | 1:57.64 | 319730 | 328568
4 | 73:00.69 | 3:12.43 | 328569 | 343011
Range status and errors
Selected range
Filename F:\backup\My Music\eac\Butch Morris - Conduction 50.wav
Suspicious position 1:16:13
Peak level 94.8 %
Range quality 100.0 %
Test CRC 9A9E69C6
Copy CRC 9A9E69C6
Copy OK
No errors occurred
AccurateRip summary
Track 1 not present in database
Track 2 not present in database
Track 3 not present in database
Track 4 not present in database
None of the tracks are present in the AccurateRip database
End of status report
По всем вопросам пишите личное сообщение пользователю M0p94ok.
17:01
299
Нет комментариев. Ваш будет первым!