Вы используете незарегистрированную версию компонента "Вкладки"!

Поиск

(Post-Bop / Free Jazz) Rich Halley - Saxophone Animals - 1991, FLAC (tracks+.cue), lossless

(Post-Bop / Free Jazz) Rich Halley - Saxophone Animals - 1991, FLAC (tracks+.cue), lossless
Треклист:
Rich Halley - Saxophone Animals
Жанр: Post-Bop / Free Jazz
Год выпуска диска: 1991
Производитель диска: US (Nine Winds) [NWCD0139]
Аудио кодек: FLAC
Тип рипа: tracks+.cue
Битрейт аудио: lossless
Продолжительность: 64:10
Rich Halley: tenor saxophone, bell
Rob Blakeslee: trumpet, flügelhorn, shakers
Gary Harris: alto & soprano saxophone, bell
Tom Hill: trombone, shakers
Phil Sparks: bass
William Thomas: drums, percussion
Geoff Lee: piano (#7, #8)
Трэклист:
1. Saxophone Animals
2. Concrete Canyons
Suriname Suite:
3. Scraps
4. Leaves
5. Paramaribo Haircut
6. No Name Struggle
7. The Serpent's Tooth
8. Carson's Blues
 
.log
Exact Audio Copy V0.99 prebeta 5 from 4. May 2009
EAC extraction logfile from 4. July 2010, 0:13
Rich Halley / Saxophone Animals
Used drive : HL-DT-STDVDRAM GH41N Adapter: 0 ID: 0
Read mode : Secure
Utilize accurate stream : Yes
Defeat audio cache : Yes
Make use of C2 pointers : No
Read offset correction : 667
Overread into Lead-In and Lead-Out : No
Fill up missing offset samples with silence : Yes
Delete leading and trailing silent blocks : No
Null samples used in CRC calculations : Yes
Used interface : Native Win32 interface for Win NT & 2000
Gap handling : Appended to previous track
Used output format : User Defined Encoder
Selected bitrate : 768 kBit/s
Quality : High
Add ID3 tag : No
Command line compressor : C:\Program Files\Exact Audio Copy\Flac\flac.exe
Additional command line options : -V -8 -T "artist=%a" -T "title=%t" -T "album=%g" -T "date=%y" -T "tracknumber=%n" -T "genre=%m" %s
TOC of the extracted CD
Track | Start | Length | Start sector | End sector
---------------------------------------------------------
1 | 0:00.00 | 13:31.45 | 0 | 60869
2 | 13:31.45 | 11:26.25 | 60870 | 112344
3 | 24:57.70 | 3:53.22 | 112345 | 129841
4 | 28:51.17 | 7:48.38 | 129842 | 164979
5 | 36:39.55 | 7:42.30 | 164980 | 199659
6 | 44:22.10 | 6:27.05 | 199660 | 228689
7 | 50:49.15 | 5:46.12 | 228690 | 254651
8 | 56:35.27 | 7:35.00 | 254652 | 288776
Track 1
Filename D:\Nine Winds\Rich Halley - Saxophone Animals (1990) [FLAC]\01 Saxophone Animals.wav
Pre-gap length 0:00:02.00
Peak level 94.1 %
Track quality 100.0 %
Test CRC 3293AA20
Copy CRC 3293AA20
Copy OK
Track 2
Filename D:\Nine Winds\Rich Halley - Saxophone Animals (1990) [FLAC]\02 Concrete Canyons.wav
Pre-gap length 0:00:02.30
Peak level 94.1 %
Track quality 100.0 %
Test CRC E08E17BC
Copy CRC E08E17BC
Copy OK
Track 3
Filename D:\Nine Winds\Rich Halley - Saxophone Animals (1990) [FLAC]\03 Scraps.wav
Pre-gap length 0:00:04.53
Peak level 94.1 %
Track quality 100.0 %
Test CRC 8AF9F798
Copy CRC 8AF9F798
Copy OK
Track 4
Filename D:\Nine Winds\Rich Halley - Saxophone Animals (1990) [FLAC]\04 Leaves.wav
Pre-gap length 0:00:02.42
Peak level 94.1 %
Track quality 99.9 %
Test CRC 44CE194D
Copy CRC 44CE194D
Copy OK
Track 5
Filename D:\Nine Winds\Rich Halley - Saxophone Animals (1990) [FLAC]\05 Paramaribo Haircut.wav
Pre-gap length 0:00:02.29
Peak level 94.3 %
Track quality 100.0 %
Test CRC F7AC64AE
Copy CRC F7AC64AE
Copy OK
Track 6
Filename D:\Nine Winds\Rich Halley - Saxophone Animals (1990) [FLAC]\06 No Name Struggle.wav
Pre-gap length 0:00:01.93
Peak level 94.0 %
Track quality 100.0 %
Test CRC 09508C90
Copy CRC 09508C90
Copy OK
Track 7
Filename D:\Nine Winds\Rich Halley - Saxophone Animals (1990) [FLAC]\07 The Serpent's Tooth.wav
Pre-gap length 0:00:03.13
Peak level 94.0 %
Track quality 100.0 %
Test CRC 11670CEF
Copy CRC 11670CEF
Copy OK
Track 8
Filename D:\Nine Winds\Rich Halley - Saxophone Animals (1990) [FLAC]\08 Carson's Blues.wav
Pre-gap length 0:00:02.93
Peak level 94.0 %
Track quality 100.0 %
Test CRC 098CA844
Copy CRC 098CA844
Copy OK
No errors occurred
End of status report
 
.cue
REM DATE 1990
REM DISCID 690F0A08
REM COMMENT "ExactAudioCopy v0.99pb5"
PERFORMER "Rich Halley"
TITLE "Saxophone Animals"
FILE "01 Saxophone Animals.wav" WAVE
TRACK 01 AUDIO
TITLE "Saxophone Animals"
PERFORMER "Rich Halley"
INDEX 01 00:00:00
TRACK 02 AUDIO
TITLE "Concrete Canyons"
PERFORMER "Rich Halley"
INDEX 00 13:29:22
FILE "02 Concrete Canyons.wav" WAVE
INDEX 01 00:00:00
TRACK 03 AUDIO
TITLE "Scraps"
PERFORMER "Rich Halley"
INDEX 00 11:21:60
FILE "03 Scraps.wav" WAVE
INDEX 01 00:00:00
TRACK 04 AUDIO
TITLE "Leaves"
PERFORMER "Rich Halley"
INDEX 00 03:50:65
FILE "04 Leaves.wav" WAVE
INDEX 01 00:00:00
TRACK 05 AUDIO
TITLE "Paramaribo Haircut"
PERFORMER "Rich Halley"
INDEX 00 07:46:16
FILE "05 Paramaribo Haircut.wav" WAVE
INDEX 01 00:00:00
TRACK 06 AUDIO
TITLE "No Name Struggle"
PERFORMER "Rich Halley"
INDEX 00 07:40:35
FILE "06 No Name Struggle.wav" WAVE
INDEX 01 00:00:00
TRACK 07 AUDIO
TITLE "The Serpent's Tooth"
PERFORMER "Rich Halley"
INDEX 00 06:23:70
FILE "07 The Serpent's Tooth.wav" WAVE
INDEX 01 00:00:00
TRACK 08 AUDIO
TITLE "Carson's Blues"
PERFORMER "Rich Halley"
INDEX 00 05:43:17
FILE "08 Carson's Blues.wav" WAVE
INDEX 01 00:00:00
собственный рип
По всем вопросам пишите личное сообщение пользователю M0p94ok.
01:06
141
Нет комментариев. Ваш будет первым!