Вы используете незарегистрированную версию компонента "Вкладки"!

Поиск

(Free Improvisation / Avant-Garde / Modern Creative / Thrill Jockey) Chicago Underground Duo - Axis and Alignment - 2002, FLAC (image+.cue), lossless

Треклист:
Chicago Underground Duo - Axis and Alignment

Жанр: Free Improvisation / Avant-Garde / Modern Creative / Thrill Jockey
Год выпуска диска: 2002
Производитель диска: Thrill Jockey 106; USA
Аудио кодек: FLAC
Тип рипа: image+.cue
Битрейт аудио: lossless
Продолжительность: 41:17
Chad Taylor: percussion, vibraphone, guitar
Rob Mazurek: cornet, electronics, piano
1. Micro Exit
2. Lifelines
3. Particle and Transfiguration
4. Exponent Red
5. Average Assumptions And Misunderstandings
6. Lem
7. Two Concepts for the Storage of Light
8. Memoirs of a Space Traveller
9. Rotation
10. Access and Enlightenment
11. Noon
 
AAJ Review
The Chicago Underground Duo, made up of Rob Mazurek and Chad Taylor, has expanded and contracted from the two core members to alternately become the Chicago Underground Duo (which actually was a trio), Chicago Underground Trio (was sometimes a quartet), the Chicago Underground Quartet (was actually a quartet) and the Chicago Underground Orchestra (don't ask). This year's release finds the duo scaled back to just Mazurek and Taylor pushing ever outward into the nexus of jazz, electronics, and improvisation.
Their penultimate record, the eponymously titled Chicago Underground Quartet (2001), was perhaps their most ambitious session to date. The quartet added guitarist Jeff Parker and Noel Kupersmith on bass to play music of a mostly compositional nature. Axis And Alignment returns to the duo's freeier work heard on the 2000 release Synesthesia. The disc opens with "Micro Exit," a vibraphone and muted trumpet, Hitchcock-like soundtrack piece. The album then falls into two definite patterns of shorter improvised tracks that act as samples from an artist's notebook and longer tracks that satisfy the need for a flowing vibe of storyline. The two and three minute tracks tend to be spacier ("Noon") and noisier ("Particle And Transfiguration"). The duo applies an economical use of electronics, as a simple looping beat on "Rotation" and the terrifying machine that shorts out on the clattery "Memoirs Of A Space Traveler." Taylor produces the varying beats, be they the thunder or the splashes of vibraphone color. As for Mazurek, his Don Cherry/Jon Hassell cornet conquers both open and muted free/world music. Their stripped-down duo minimal approach to music produces an apocalypse of sound. ~ Mark Corroto, AAJ
 
EAC Report
Exact Audio Copy V0.99 prebeta 4 from 23. January 2008
EAC extraction logfile from 6. July 2010, 20:29
Chicago Underground Duo / Axis and Alignment
Used drive : TSSTcorpCD/DVDW SH-S182M Adapter: 2 ID: 0
Read mode : Secure
Utilize accurate stream : Yes
Defeat audio cache : Yes
Make use of C2 pointers : No
Read offset correction : 6
Overread into Lead-In and Lead-Out : No
Fill up missing offset samples with silence : Yes
Delete leading and trailing silent blocks : No
Null samples used in CRC calculations : Yes
Used interface : Installed external ASPI interface
Used output format : User Defined Encoder
Selected bitrate : 1024 kBit/s
Quality : High
Add ID3 tag : No
Command line compressor : C:\Program Files\Exact Audio Copy\Flac\flac.exe
Additional command line options : -6 -V -T "ARTIST=%a" -T "TITLE=%t" -T "ALBUM=%g" -T "DATE=%y" -T "TRACKNUMBER=%n" -T "GENRE=%m" -T "COMMENT=EAC FLAC -6" %s
TOC of the extracted CD
Track | Start | Length | Start sector | End sector
---------------------------------------------------------
1 | 0:00.00 | 4:19.52 | 0 | 19476
2 | 4:19.52 | 6:48.63 | 19477 | 50139
3 | 11:08.40 | 2:10.72 | 50140 | 59961
4 | 13:19.37 | 3:09.48 | 59962 | 74184
5 | 16:29.10 | 1:39.05 | 74185 | 81614
6 | 18:08.15 | 1:59.70 | 81615 | 90609
7 | 20:08.10 | 9:19.02 | 90610 | 132536
8 | 29:27.12 | 3:42.68 | 132537 | 149254
9 | 33:10.05 | 1:41.07 | 149255 | 156836
10 | 34:51.12 | 4:18.30 | 156837 | 176216
11 | 39:09.42 | 2:07.03 | 176217 | 185744
Range status and errors
Selected range
Filename C:\Users\Igor\Music\eac\Chicago Underground Duo - Axis and Alignment.wav
Peak level 99.7 %
Range quality 100.0 %
Test CRC 8F2E8B39
Copy CRC 8F2E8B39
Copy OK
No errors occurred
AccurateRip summary
Track 1 not present in database
Track 2 not present in database
Track 3 not present in database
Track 4 not present in database
Track 5 not present in database
Track 6 not present in database
Track 7 not present in database
Track 8 not present in database
Track 9 not present in database
Track 10 not present in database
Track 11 not present in database
None of the tracks are present in the AccurateRip database
End of status report

рип собственный
По всем вопросам пишите личное сообщение пользователю M0p94ok.
01:06
170
Нет комментариев. Ваш будет первым!