Вы используете незарегистрированную версию компонента "Вкладки"!

Поиск

(Post-Bop / Free Jazz / Modern Creative) Kirk Knuffke - Amnesia Brown - 2010, FLAC (image+.cue), lossless

(Post-Bop / Free Jazz / Modern Creative) Kirk Knuffke - Amnesia Brown - 2010, FLAC (image+.cue), lossless
Треклист:
Kirk Knuffke - Amnesia Brown

Жанр: Post-Bop / Free Jazz / Modern Creative
Год выпуска диска: 2010
Производитель диска: Clean Feed CF167 (Portugal)
Аудио кодек: FLAC
Тип рипа: image+.cue
Битрейт аудио: lossless
Продолжительность: 53:10
Источник: Собственный рип с оригинального диска
Kirk Knuffke: trumpet
Doug Wieselman: clarinet, guitar
Kenny Wollesen: drums
1. How It Goes
2. Double
3. Level
4. Amnesia Brown
5. 2nd
6. Read Bag
7. Leadbelly
8. Practical Sampling
9. Hears It
10. Totem
11. Need
12. Fix It, Charlie
13. High-Pants Bob
14. Narrative
15. Please Help, Please Give
16. Anne
Recorded December 2, 2008 at Systems Two in Brooklyn, NY.

 
Clean Feed
"Few musicians have been as enthusiastically and unanimously applauded with a debut recording as trumpeter Kirk Knuffke with his CD "Big Wig" (Clean Feed). Now he returns with a second opus, in partnership with two musicians with whom he has been associated for some years, Doug Wieselman (clarinet, guitar) and Kenny Wollesen (drums). Like Knuffke, both are members of the Nublu Orchestra conducted by Butch Morris and Wollesen is a frequent John Zorn collaborator and leader of several bands that include Knuffke. Again, we can expect Knuffke will be a sensation: this is wonderful music and often times surprising. There is much more to hear in this collection of tracks than the free bop style often identified with the present day New York scene. The album itself does not suffer from any kind of amnesia - here, the musical past is well remembered and presented in a new and outstanding way. The title of the album refers only to a family episode. "Amnesia Brown" is the nickname given by Knuffke's mother to his great grandfather, who disappeared and was found some years later in another city with another surname, Brown, a new family and claimed no memory of the past." ~ Clean Feed
 
EAC Report
Exact Audio Copy V0.99 prebeta 5 from 4. May 2009
EAC extraction logfile from 18. February 2010, 21:50
Kirk Knuffke / Amnesia Brown
Used drive : hp DVD-RAM GH40L Adapter: 0 ID: 1
Read mode : Secure
Utilize accurate stream : Yes
Defeat audio cache : Yes
Make use of C2 pointers : No
Read offset correction : 667
Overread into Lead-In and Lead-Out : No
Fill up missing offset samples with silence : Yes
Delete leading and trailing silent blocks : No
Null samples used in CRC calculations : Yes
Used interface : Installed external ASPI interface
Used output format : User Defined Encoder
Selected bitrate : 1024 kBit/s
Quality : High
Add ID3 tag : No
Command line compressor : C:\Program Files\Exact Audio Copy\Flac\flac.exe
Additional command line options : -6 -V -T "ARTIST=%a" -T "TITLE=%t" -T "ALBUM=%g" -T "DATE=%y" -T "TRACKNUMBER=%n" -T "GENRE=%m" -T "COMMENT=EAC FLAC -6" %s
TOC of the extracted CD
Track | Start | Length | Start sector | End sector
---------------------------------------------------------
1 | 0:00.00 | 3:22.00 | 0 | 15149
2 | 3:22.00 | 2:31.36 | 15150 | 26510
3 | 5:53.36 | 3:29.51 | 26511 | 42236
4 | 9:23.12 | 3:47.42 | 42237 | 59303
5 | 13:10.54 | 2:52.56 | 59304 | 72259
6 | 16:03.35 | 1:55.04 | 72260 | 80888
7 | 17:58.39 | 4:19.07 | 80889 | 100320
8 | 22:17.46 | 3:12.67 | 100321 | 114787
9 | 25:30.38 | 3:31.30 | 114788 | 130642
10 | 29:01.68 | 4:54.40 | 130643 | 152732
11 | 33:56.33 | 3:26.16 | 152733 | 168198
12 | 37:22.49 | 3:38.32 | 168199 | 184580
13 | 41:01.06 | 2:46.17 | 184581 | 197047
14 | 43:47.23 | 3:14.29 | 197048 | 211626
15 | 47:01.52 | 3:03.53 | 211627 | 225404
16 | 50:05.30 | 3:04.44 | 225405 | 239248
Range status and errors
Selected range
Filename C:\Users\Igor\Music\eac\Kirk Knuffke - Amnesia Brown.wav
Peak level 100.0 %
Range quality 100.0 %
Test CRC BF33E19A
Copy CRC BF33E19A
Copy OK
No errors occurred
AccurateRip summary
Track 1 not present in database
Track 2 not present in database
Track 3 not present in database
Track 4 not present in database
Track 5 not present in database
Track 6 not present in database
Track 7 not present in database
Track 8 not present in database
Track 9 not present in database
Track 10 not present in database
Track 11 not present in database
Track 12 not present in database
Track 13 not present in database
Track 14 not present in database
Track 15 not present in database
Track 16 not present in database
None of the tracks are present in the AccurateRip database
End of status report
Any questions -> support@pro-jazz.com. По всем вопросам пишите -> support@pro-jazz.com
20:22
197
Нет комментариев. Ваш будет первым!