Вы используете незарегистрированную версию компонента "Вкладки"!

Поиск

1975 Masayuki Takayanagi New Direction Unit - Axis_Another Revolable Thing Vol. 1 (2006) [CD]

1975 Masayuki Takayanagi New Direction Unit - Axis_Another Revolable Thing Vol. 1 (2006) [CD]
Стили:
Издатель (лейбл):
Треклист:
Masayuki Takayanagi New Direction Unit in Concert
Axis/Another Revolable Thing Vol. 1
Жанр: Free Improvisation
Год выпуска диска: 2006 (1975)
Производитель диска: Doubtmusic (dmrp-110)
Источник: вот.сиди (bburl)
Аудио кодек: FLAC
Тип рипа: tracks+.cue
Битрейт аудио: lossless
Продолжительность: 51:30
Трэклист:
1 Fragment - II (Gradually Projection) 15:06
2 Fragment - III (Percussion Solo) 13:24
3 Fragment - VI (Mass Projection) 22:59
Recorded September 5, 1975, Yasuda Seimei Hall, Tokyo
Masayuki Takayanagi guitar
Kenji Mori reeds
Nobuyoshi Ino bass, cello
Hiroshi Yamazaki percussion
 
Отчёт EAC
Exact Audio Copy V0.99 prebeta 4 from 23. January 2008
EAC extraction logfile from 31. March 2008, 2:39
Masayuki Takayanagi New Direction Unit / Axis - Another Revolvable Thing Vol.1
Used drive  : PLEXTOR DVDR   PX-760A   Adapter: 1  ID: 0
Read mode               : Secure
Utilize accurate stream : Yes
Defeat audio cache      : Yes
Make use of C2 pointers : No
Read offset correction                      : 30
Overread into Lead-In and Lead-Out          : No
Fill up missing offset samples with silence : Yes
Delete leading and trailing silent blocks   : No
Null samples used in CRC calculations       : Yes
Used interface                              : Installed external ASPI interface
Gap handling                                : Appended to previous track
Used output format              : User Defined Encoder
Selected bitrate                : 192 kBit/s
Quality                         : High
Add ID3 tag                     : No
Command line compressor         : G:\Program Files\MEDIA\filters\Flac official\FLAC\flac.exe
Additional command line options :  -8 -V -T "ARTIST=%a" -T "TITLE=%t" -T "ALBUM=%g" -T "DATE=%y" -T "TRACKNUMBER=%n" -T "GENRE=%m" -T "COMMENT=EAC FLAC -8" %s
TOC of the extracted CD
     Track |   Start  |  Length  | Start sector | End sector
    ---------------------------------------------------------
        1  |  0:00.00 | 15:06.14 |         0    |    67963
        2  | 15:06.14 | 13:24.12 |     67964    |   128275
        3  | 28:30.26 | 22:59.37 |    128276    |   231737
Track  1
     Filename E:\uTORRENT\ups\Masayuki Takayanagi New Direction Unit - Axis - Another Revovable Thing (1975) [FLAC]\01 - Fragment II - Gradually Projection.wav
     Pre-gap length  0:00:02.00
     Peak level 88.6 %
     Track quality 99.9 %
     Test CRC 0DD9C81C
     Copy CRC 0DD9C81C
     Track not present in AccurateRip database
     Copy OK
Track  2
     Filename E:\uTORRENT\ups\Masayuki Takayanagi New Direction Unit - Axis - Another Revovable Thing (1975) [FLAC]\02 - Fragment III - Percussion Solo.wav
     Peak level 92.7 %
     Track quality 100.0 %
     Test CRC 8B4E74D9
     Copy CRC 8B4E74D9
     Track not present in AccurateRip database
     Copy OK
Track  3
     Filename E:\uTORRENT\ups\Masayuki Takayanagi New Direction Unit - Axis - Another Revovable Thing (1975) [FLAC]\03 - Fragment VI - Mass Projection.wav
     Pre-gap length  0:00:06.45
     Peak level 94.4 %
     Track quality 100.0 %
     Test CRC DDEB6167
     Copy CRC DDEB6167
     Track not present in AccurateRip database
     Copy OK
None of the tracks are present in the AccurateRip database
No errors occurred
End of status report
 
 
Отчёт Audiocheckera
AUDIOCHECKER v1.2 - by Dester - opdester@freemail.hu
~~~~~~~~~~~~~~~~~
1 -===- H:\Песеньки\lossless\masayuki takayanagi\masayuki takayanagi new direction unit\axis - another revovable thing 1975\01 - Fragment II - Gradually Projection.flac
  Extracted successfully
  Conclusion: This track looks like CDDA with probability 100%
2 -===- H:\Песеньки\lossless\masayuki takayanagi\masayuki takayanagi new direction unit\axis - another revovable thing 1975\02 - Fragment III - Percussion Solo.flac
  Extracted successfully
  Conclusion: This track looks like CDDA with probability 100%
3 -===- H:\Песеньки\lossless\masayuki takayanagi\masayuki takayanagi new direction unit\axis - another revovable thing 1975\03 - Fragment VI - Mass Projection.flac
  Extracted successfully
  Conclusion: This track looks like CDDA with probability 100%
 
 
cue
REM GENRE Jazz
REM DATE 1975
REM DISCID 1E0C1103
REM COMMENT "ExactAudioCopy v0.99pb4"
PERFORMER "Masayuki Takayanagi New Direction Unit"
TITLE "Axis - Another Revolvable Thing Vol.1"
FILE "01 - Fragment II - Gradually Projection.wav" WAVE
  TRACK 01 AUDIO
    TITLE "Fragment II - Gradually Projection"
    PERFORMER "Masayuki Takayanagi New Direction Unit"
    INDEX 01 00:00:00
FILE "02 - Fragment III - Percussion Solo.wav" WAVE
  TRACK 02 AUDIO
    TITLE "Fragment III - Percussion Solo"
    PERFORMER "Masayuki Takayanagi New Direction Unit"
    INDEX 01 00:00:00
  TRACK 03 AUDIO
    TITLE "Fragment VI - Mass Projection"
    PERFORMER "Masayuki Takayanagi New Direction Unit"
    INDEX 00 13:17:42
FILE "03 - Fragment VI - Mass Projection.wav" WAVE
    INDEX 01 00:00:00
Any questions -> support@pro-jazz.com. По всем вопросам пишите -> support@pro-jazz.com
20:23
278
Нет комментариев. Ваш будет первым!