Поиск

(Post-Bop, Ethnic Jazz) [CD] Lucia Martinez Cuarteto - Sonos e Delirios - 2008, FLAC (tracks+.cue), lossless

(Post-Bop, Ethnic Jazz) [CD] Lucia Martinez Cuarteto - Sonos e Delirios - 2008, FLAC (tracks+.cue), lossless
Треклист:
Lucia Martinez Cuarteto - Soños e Delirios Жанр: Post-Bop, Ethnic Jazz
Носитель: CD
Год издания: 2008
Издатель (лейбл): Karonte
Номер по каталогу: KAR7809
Аудиокодек: FLAC (*.flac)
Тип рипа: tracks+.cue
Битрейт аудио: lossless
Продолжительность: 55:35
Rip by jlgt
Наличие сканов в содержимом раздачи: да
Треклист:
01. Perto do 177 Rua de Moreira, Porto (6:10)
02. Meu Sonho D'Ouro (6:58)
03. Lucecita de la Manana (7:43)
04. Corredores de Sombra (8:46)
05. Eu de Marin Ausenteime (3:11)
06. Disponibilidade para os Delirios (6:09)
07. O Dia Antes (7:44)
08. Vendaval (4:06)
09. Eu de Marin Ausenteime (Instrumental) (4:49)
 
 
 
Лог создания рипа
Exact Audio Copy V1.0 beta 3 from 29. August 2011
EAC extraction logfile from 6. May 2015, 0:29
Lucia Martinez Cuarteto / Sonos e Delirios
Used drive : PLEXTOR DVDR PX-891SAW Adapter: 2 ID: 1
Read mode : Secure
Utilize accurate stream : Yes
Defeat audio cache : Yes
Make use of C2 pointers : No
Read offset correction : 48
Overread into Lead-In and Lead-Out : No
Fill up missing offset samples with silence : Yes
Delete leading and trailing silent blocks : No
Null samples used in CRC calculations : Yes
Used interface : Native Win32 interface for Win NT & 2000
Gap handling : Appended to previous track
Used output format : User Defined Encoder
Selected bitrate : 128 kBit/s
Quality : High
Add ID3 tag : No
Command line compressor : C:\Program Files (x86)\Exact Audio Copy\FLAC\FLAC.EXE
Additional command line options : -8 -V -T "ARTIST=%artist%" -T "TITLE=%title%" -T "ALBUM=%albumtitle%" -T "DATE=%year%" -T "TRACKNUMBER=%tracknr%" -T "TOTALTRACKS=%numtracks%" -T "GENRE=%genre%" -T "ALBUMARTIST=%albumartist%" -T "ALBUM ARTIST=%albumartist%" -T "COMMENT=EAC Secure Mode, Test & Copy, AccurateRip, FLAC -8" %source%
TOC of the extracted CD
Track | Start | Length | Start sector | End sector
---------------------------------------------------------
1 | 0:00.00 | 6:10.21 | 0 | 27770
2 | 6:10.21 | 6:58.27 | 27771 | 59147
3 | 13:08.48 | 7:42.60 | 59148 | 93857
4 | 20:51.33 | 8:45.65 | 93858 | 133297
5 | 29:37.23 | 3:10.54 | 133298 | 147601
6 | 32:48.02 | 6:08.46 | 147602 | 175247
7 | 38:56.48 | 7:43.43 | 175248 | 210015
8 | 46:40.16 | 4:06.07 | 210016 | 228472
9 | 50:46.23 | 4:49.05 | 228473 | 250152
Track 1
Filename G:\Flac Rips\01 - Perto do 177 Rua de Moreira, Porto.wav
Pre-gap length 0:00:02.00
Peak level 98.8 %
Extraction speed 5.3 X
Track quality 100.0 %
Test CRC 9C2AE08F
Copy CRC 9C2AE08F
Accurately ripped (confidence 1) [AFD61395] (AR v2)
Copy OK
Track 2
Filename G:\Flac Rips\02 - Meu Sonho D'Ouro.wav
Pre-gap length 0:00:01.00
Peak level 98.8 %
Extraction speed 6.2 X
Track quality 100.0 %
Test CRC 70728B77
Copy CRC 70728B77
Accurately ripped (confidence 1) [0804CA5C] (AR v2)
Copy OK
Track 3
Filename G:\Flac Rips\03 - Lucecita de la Manana.wav
Pre-gap length 0:00:01.00
Peak level 98.8 %
Extraction speed 5.6 X
Track quality 99.9 %
Test CRC 78D27954
Copy CRC 78D27954
Accurately ripped (confidence 1) [7B8F9B59] (AR v2)
Copy OK
Track 4
Filename G:\Flac Rips\04 - Corredores de Sombra.wav
Pre-gap length 0:00:01.00
Peak level 98.8 %
Extraction speed 6.4 X
Track quality 99.9 %
Test CRC 8C8199E9
Copy CRC 8C8199E9
Accurately ripped (confidence 1) [D7585404] (AR v2)
Copy OK
Track 5
Filename G:\Flac Rips\05 - Eu de Marin Ausenteime.wav
Pre-gap length 0:00:01.00
Peak level 98.8 %
Extraction speed 7.5 X
Track quality 100.0 %
Test CRC A572A6C9
Copy CRC A572A6C9
Accurately ripped (confidence 1) [81E783AE] (AR v2)
Copy OK
Track 6
Filename G:\Flac Rips\06 - Disponibilidade para os Delirios.wav
Pre-gap length 0:00:01.00
Peak level 98.8 %
Extraction speed 8.5 X
Track quality 100.0 %
Test CRC 3AB92C72
Copy CRC 3AB92C72
Accurately ripped (confidence 1) [BADC0170] (AR v2)
Copy OK
Track 7
Filename G:\Flac Rips\07 - O Dia Antes.wav
Pre-gap length 0:00:01.00
Peak level 98.8 %
Extraction speed 9.1 X
Track quality 100.0 %
Test CRC 39496F56
Copy CRC 39496F56
Accurately ripped (confidence 1) [6ABC022C] (AR v2)
Copy OK
Track 8
Filename G:\Flac Rips\08 - Vendaval.wav
Pre-gap length 0:00:01.00
Peak level 98.8 %
Extraction speed 8.9 X
Track quality 100.0 %
Test CRC 6928722D
Copy CRC 6928722D
Accurately ripped (confidence 1) [A2E0BC2F] (AR v2)
Copy OK
Track 9
Filename G:\Flac Rips\09 - Eu de Marin Ausenteime (Instrumental).wav
Pre-gap length 0:00:01.00
Peak level 98.8 %
Extraction speed 7.2 X
Track quality 100.0 %
Test CRC 602F08C6
Copy CRC 602F08C6
Accurately ripped (confidence 1) [4E08C65E] (AR v2)
Copy OK
All tracks accurately ripped
No errors occurred
End of status report
==== Log checksum 1FF7FC8FCC82222CC09DF3103818EB4A77BF819E4EC1E5A64FD76BF728C4D340 ====
 
Содержание индексной карты (.CUE)
REM GENRE Jazz
REM DATE 2008
REM DISCID 7D0D0709
REM COMMENT "ExactAudioCopy v1.0b3"
PERFORMER "Lucia Martinez Cuarteto"
TITLE "Sonos e Delirios"
FILE "01 - Perto do 177 Rua de Moreira, Porto.wav" WAVE
TRACK 01 AUDIO
TITLE "Perto do 177 Rua de Moreira, Porto"
PERFORMER "Lucia Martinez Cuarteto"
FLAGS DCP
INDEX 01 00:00:00
TRACK 02 AUDIO
TITLE "Meu Sonho D'Ouro"
PERFORMER "Lucia Martinez Cuarteto"
FLAGS DCP
INDEX 00 06:09:21
FILE "02 - Meu Sonho D'Ouro.wav" WAVE
INDEX 01 00:00:00
TRACK 03 AUDIO
TITLE "Lucecita de la Manana"
PERFORMER "Lucia Martinez Cuarteto"
FLAGS DCP
INDEX 00 06:57:27
FILE "03 - Lucecita de la Manana.wav" WAVE
INDEX 01 00:00:00
TRACK 04 AUDIO
TITLE "Corredores de Sombra"
PERFORMER "Lucia Martinez Cuarteto"
FLAGS DCP
INDEX 00 07:41:60
FILE "04 - Corredores de Sombra.wav" WAVE
INDEX 01 00:00:00
TRACK 05 AUDIO
TITLE "Eu de Marin Ausenteime"
PERFORMER "Lucia Martinez Cuarteto"
FLAGS DCP
INDEX 00 08:44:65
FILE "05 - Eu de Marin Ausenteime.wav" WAVE
INDEX 01 00:00:00
TRACK 06 AUDIO
TITLE "Disponibilidade para os Delirios"
PERFORMER "Lucia Martinez Cuarteto"
FLAGS DCP
INDEX 00 03:09:54
FILE "06 - Disponibilidade para os Delirios.wav" WAVE
INDEX 01 00:00:00
TRACK 07 AUDIO
TITLE "O Dia Antes"
PERFORMER "Lucia Martinez Cuarteto"
FLAGS DCP
INDEX 00 06:07:46
FILE "07 - O Dia Antes.wav" WAVE
INDEX 01 00:00:00
TRACK 08 AUDIO
TITLE "Vendaval"
PERFORMER "Lucia Martinez Cuarteto"
FLAGS DCP
INDEX 00 07:42:43
FILE "08 - Vendaval.wav" WAVE
INDEX 01 00:00:00
TRACK 09 AUDIO
TITLE "Eu de Marin Ausenteime (Instrumental)"
PERFORMER "Lucia Martinez Cuarteto"
FLAGS DCP
INDEX 00 04:05:07
FILE "09 - Eu de Marin Ausenteime (Instrumental).wav" WAVE
INDEX 01 00:00:00
 
Состав
musicians
Lucia Martinez - drums, percussion, electronics
Pedro Neves - piano
Carl Minnemann - bass
Joao Pedro Brandao - saxophone, flute
guests:
Perico Sambeat - sax
Maria Joao - voice
Jose Alberto Gomes - electronics
J. Antonio Barreiro "Toto" and Juan Osaba "Juantxin" - claps
18:40
302
Нет комментариев. Ваш будет первым!