Поиск

(Afro-Cuban Jazz) [CD] Michele Rosewoman's New Yor-Uba - 30 Years: A Musical Celebration of Cuba in America (2CD) - 2013, FLAC (tracks+.cue), lossless

(Afro-Cuban Jazz) [CD] Michele Rosewoman's New Yor-Uba - 30 Years: A Musical Celebration of Cuba in America (2CD) - 2013, FLAC (tracks+.cue), lossless
Треклист:
Michele Rosewoman's New Yor-Uba - 30 Years: A Musical Celebration of Cuba in America
Жанр: Afro-Cuban Jazz
Носитель: CD
Страна-производитель диска (релиза): США
Год издания: 2013
Издатель (лейбл): Advance Dance Disques
Номер по каталогу: AD0354
Аудиокодек: FLAC (*.flac)
Тип рипа: tracks+.cue
Битрейт аудио: lossless
Продолжительность: 1:45:15
Источник (релизер): SameAsCache (what)
Наличие сканов в содержимом раздачи: нет
 
CD1 {50:19}
01. Divine Passage (Eleggua) (Rosewoman) - 5:40
02. Dance for Agayu (Rosewoman) - 7:48
03. Natural Light (Obatala) (Rosewoman) - 11:56
04. Por Ahora y Para Siempre (Rosewoman) - 8:23
05. Vamp for Ochun (Rosewoman) - 4:09
06. Old Calabar (Abakua) (Rosewoman) - 9:10
07. Rezo a Ochun (Rosewoman) - 3:13
 
Лог создания рипа
Exact Audio Copy V1.0 beta 3 from 29. August 2011
EAC extraction logfile from 10. March 2014, 16:41
Michele Rosewoman's New Yor-Uba / A Musical Celebration of Cuba in America
Used drive : ASUS DRW-24B1ST a Adapter: 2 ID: 0
Read mode : Secure
Utilize accurate stream : Yes
Defeat audio cache : Yes
Make use of C2 pointers : No
Read offset correction : 6
Overread into Lead-In and Lead-Out : No
Fill up missing offset samples with silence : Yes
Delete leading and trailing silent blocks : No
Null samples used in CRC calculations : Yes
Used interface : Native Win32 interface for Win NT & 2000
Gap handling : Appended to previous track
Used output format : User Defined Encoder
Selected bitrate : 1024 kBit/s
Quality : High
Add ID3 tag : No
Command line compressor : C:\Program Files (x86)\FLAC\flac.exe
Additional command line options : -8 -V -T "ARTIST=%artist%" -T "TITLE=%title%" -T "ALBUM=%albumtitle%" -T "DATE=%year%" -T "TRACKNUMBER=%tracknr%" -T "GENRE=%genre%" -T "PERFORMER=%albuminterpret%" -T "COMPOSER=%composer%" %haslyrics%--tag-from-file=LYRICS="%lyricsfile%"%haslyrics% -T "ALBUMARTIST=%albumartist%" -T "DISCNUMBER=%cdnumber%" -T "TOTALDISCS=%totalcds%" -T "TOTALTRACKS=%numtracks%" -T "COMMENT=%comment%" %source% -o %dest%
TOC of the extracted CD
Track | Start | Length | Start sector | End sector
---------------------------------------------------------
1 | 0:00.00 | 5:40.32 | 0 | 25531
2 | 5:40.32 | 7:48.18 | 25532 | 60649
3 | 13:28.50 | 11:55.73 | 60650 | 114347
4 | 25:24.48 | 8:23.30 | 114348 | 152102
5 | 33:48.03 | 4:09.24 | 152103 | 170801
6 | 37:57.27 | 9:09.48 | 170802 | 212024
7 | 47:07.00 | 3:13.30 | 212025 | 226529
Track 1
Filename E:\eacrips\Michele Rosewoman's New Yor-Uba - A Musical Celebration of Cuba in America (2013) [FLAC]\Disc 1\01 - Divine Passage.wav
Pre-gap length 0:00:02.00
Peak level 98.8 %
Extraction speed 3.8 X
Track quality 100.0 %
Test CRC 7E7B2612
Copy CRC 7E7B2612
Accurately ripped (confidence 2) [301B9FEC] (AR v2)
Copy OK
Track 2
Filename E:\eacrips\Michele Rosewoman's New Yor-Uba - A Musical Celebration of Cuba in America (2013) [FLAC]\Disc 1\02 - Dance for Agayu.wav
Pre-gap length 0:00:01.98
Peak level 98.8 %
Extraction speed 4.6 X
Track quality 100.0 %
Test CRC 2B8868D0
Copy CRC 2B8868D0
Accurately ripped (confidence 2) [CA3EE95F] (AR v2)
Copy OK
Track 3
Filename E:\eacrips\Michele Rosewoman's New Yor-Uba - A Musical Celebration of Cuba in America (2013) [FLAC]\Disc 1\03 - Natural Light.wav
Pre-gap length 0:00:03.73
Peak level 98.8 %
Extraction speed 5.5 X
Track quality 100.0 %
Test CRC 154504BB
Copy CRC 154504BB
Accurately ripped (confidence 2) [23BB4050] (AR v2)
Copy OK
Track 4
Filename E:\eacrips\Michele Rosewoman's New Yor-Uba - A Musical Celebration of Cuba in America (2013) [FLAC]\Disc 1\04 - Por Ahora y Para Siempre.wav
Pre-gap length 0:00:04.01
Peak level 98.8 %
Extraction speed 6.1 X
Track quality 100.0 %
Test CRC 6EF13345
Copy CRC 6EF13345
Accurately ripped (confidence 2) [F70B0A8F] (AR v2)
Copy OK
Track 5
Filename E:\eacrips\Michele Rosewoman's New Yor-Uba - A Musical Celebration of Cuba in America (2013) [FLAC]\Disc 1\05 - Vamp for Ochun.wav
Pre-gap length 0:00:02.22
Peak level 98.8 %
Extraction speed 4.8 X
Track quality 99.9 %
Test CRC E62664B4
Copy CRC E62664B4
Accurately ripped (confidence 2) [15DEE91A] (AR v2)
Copy OK
Track 6
Filename E:\eacrips\Michele Rosewoman's New Yor-Uba - A Musical Celebration of Cuba in America (2013) [FLAC]\Disc 1\06 - Old Calabar.wav
Pre-gap length 0:00:02.68
Peak level 98.8 %
Extraction speed 6.9 X
Track quality 100.0 %
Test CRC 506AA10B
Copy CRC 506AA10B
Accurately ripped (confidence 2) [F50CB3D7] (AR v2)
Copy OK
Track 7
Filename E:\eacrips\Michele Rosewoman's New Yor-Uba - A Musical Celebration of Cuba in America (2013) [FLAC]\Disc 1\07 - Rezo a Ochun.wav
Pre-gap length 0:00:02.10
Peak level 71.4 %
Extraction speed 6.4 X
Track quality 100.0 %
Test CRC 359FC77E
Copy CRC 359FC77E
Accurately ripped (confidence 2) [8F735AF3] (AR v2)
Copy OK
All tracks accurately ripped
No errors occurred
End of status report
---- CUETools DB Plugin V2.1.3
[CTDB TOCID: w0rqr.uMHc0rXC1StSS_BNa5HZI-] disk not present in database, Submit result: w0rqr.uMHc0rXC1StSS_BNa5HZI- has been uploaded
==== Log checksum 1A86B8DB7449ED7EE7B684EA00348076630C2CBCB71D4E9AE733C32D232891AC ====
 
Содержание индексной карты (.CUE)
REM GENRE Jazz
REM DATE 2013
REM DISCID 500BCC07
REM COMMENT "ExactAudioCopy v1.0b3"
PERFORMER "Michele Rosewoman's New Yor-Uba"
TITLE "30 Years: A Musical Celebration of Cuba in America CD1"
FILE "01 - Divine Passage (Eleggua).wav" WAVE
TRACK 01 AUDIO
TITLE "Divine Passage (Eleggua)"
PERFORMER "Michele Rosewoman's New Yor-Uba"
INDEX 01 00:00:00
TRACK 02 AUDIO
TITLE "Dance for Agayu"
PERFORMER "Michele Rosewoman's New Yor-Uba"
INDEX 00 05:38:33
FILE "02 - Dance for Agayu.wav" WAVE
INDEX 01 00:00:00
TRACK 03 AUDIO
TITLE "Natural Light (Obatala)"
PERFORMER "Michele Rosewoman's New Yor-Uba"
INDEX 00 07:44:38
FILE "03 - Natural Light (Obatala).wav" WAVE
INDEX 01 00:00:00
TRACK 04 AUDIO
TITLE "Por Ahora y Para Siempre"
PERFORMER "Michele Rosewoman's New Yor-Uba"
INDEX 00 11:51:72
FILE "04 - Por Ahora y Para Siempre.wav" WAVE
INDEX 01 00:00:00
TRACK 05 AUDIO
TITLE "Vamp for Ochun"
PERFORMER "Michele Rosewoman's New Yor-Uba"
INDEX 00 08:21:13
FILE "05 - Vamp for Ochun.wav" WAVE
INDEX 01 00:00:00
TRACK 06 AUDIO
TITLE "Old Calabar (Abakua)"
PERFORMER "Michele Rosewoman's New Yor-Uba"
INDEX 00 04:06:48
FILE "06 - Old Calabar (Abakua).wav" WAVE
INDEX 01 00:00:00
TRACK 07 AUDIO
TITLE "Rezo a Ochun"
PERFORMER "Michele Rosewoman's New Yor-Uba"
INDEX 00 09:07:40
FILE "07 - Rezo a Ochun.wav" WAVE
INDEX 01 00:00:00
 
Отчет CUETools
[CUETools log; Date: 15.05.2015 0:34:32; Version: 2.1.5]
[CTDB TOCID: w0rqr.uMHc0rXC1StSS_BNa5HZI-] found.
Track | CTDB Status
1 | (2/2) Accurately ripped
2 | (2/2) Accurately ripped
3 | (2/2) Accurately ripped
4 | (2/2) Accurately ripped
5 | (2/2) Accurately ripped
6 | (2/2) Accurately ripped
7 | (2/2) Accurately ripped
[AccurateRip ID: 000eadc6-00581375-500bcc07] found.
Track [ CRC | V2 ] Status
01 [54cca19d|301b9fec] (0+2/2) Accurately ripped
02 [9fa1b30b|ca3ee95f] (0+2/2) Accurately ripped
03 [38eeabaf|23bb4050] (0+2/2) Accurately ripped
04 [89f64702|f70b0a8f] (0+2/2) Accurately ripped
05 [941201bd|15dee91a] (0+2/2) Accurately ripped
06 [ebe8f8b3|f50cb3d7] (0+2/2) Accurately ripped
07 [1eb76420|8f735af3] (0+2/2) Accurately ripped
Track Peak [ CRC32 ] [W/O NULL] [ LOG ]
-- 98,8 [E5D041B6] [99F76AC7]
01 98,8 [7E7B2612] [B2C9A1D2] CRC32
02 98,8 [2B8868D0] [3A9E733F] CRC32
03 98,8 [154504BB] [0A76325D] CRC32
04 98,8 [6EF13345] [29EAE2BB] CRC32
05 98,8 [E62664B4] [2A1B4CB3] CRC32
06 98,8 [506AA10B] [F520A43C] CRC32
07 71,4 [359FC77E] [54F0D4EB] CRC32
 
CD2 {54:55}
01. In Praise of Spiritual Guides (Eggun) (Rosewoman) - 8:05
02. Perdon (Rumba) (Flores) - 9:08
03. Obalube (Chango) (Rosewoman) - 4:49
04. Where Water Meets Sky (Yemaya) (Rosewoman) - 11:12
05. Agua Dulce del Bosque (Ochun) (Rosewoman-Castellanos) - 7:33
06. Warrior (Ochosi) (Rosewoman) - 5:00
07. Earth Secrets (Babaluaye) (Rosewoman) - 9:08
 
Лог создания рипа
Exact Audio Copy V1.0 beta 3 from 29. August 2011
EAC extraction logfile from 10. March 2014, 17:26
Michele Rosewoman's New Yor-Uba / A Musical Celebration of Cuba in America
Used drive : ASUS DRW-24B1ST a Adapter: 2 ID: 0
Read mode : Secure
Utilize accurate stream : Yes
Defeat audio cache : Yes
Make use of C2 pointers : No
Read offset correction : 6
Overread into Lead-In and Lead-Out : No
Fill up missing offset samples with silence : Yes
Delete leading and trailing silent blocks : No
Null samples used in CRC calculations : Yes
Used interface : Native Win32 interface for Win NT & 2000
Gap handling : Appended to previous track
Used output format : User Defined Encoder
Selected bitrate : 1024 kBit/s
Quality : High
Add ID3 tag : No
Command line compressor : C:\Program Files (x86)\FLAC\flac.exe
Additional command line options : -8 -V -T "ARTIST=%artist%" -T "TITLE=%title%" -T "ALBUM=%albumtitle%" -T "DATE=%year%" -T "TRACKNUMBER=%tracknr%" -T "GENRE=%genre%" -T "PERFORMER=%albuminterpret%" -T "COMPOSER=%composer%" %haslyrics%--tag-from-file=LYRICS="%lyricsfile%"%haslyrics% -T "ALBUMARTIST=%albumartist%" -T "DISCNUMBER=%cdnumber%" -T "TOTALDISCS=%totalcds%" -T "TOTALTRACKS=%numtracks%" -T "COMMENT=%comment%" %source% -o %dest%
TOC of the extracted CD
Track | Start | Length | Start sector | End sector
---------------------------------------------------------
1 | 0:00.00 | 8:04.50 | 0 | 36349
2 | 8:04.50 | 9:07.49 | 36350 | 77423
3 | 17:12.24 | 4:49.15 | 77424 | 99113
4 | 22:01.39 | 11:12.14 | 99114 | 149527
5 | 33:13.53 | 7:32.53 | 149528 | 183480
6 | 40:46.31 | 5:00.02 | 183481 | 205982
7 | 45:46.33 | 9:08.05 | 205983 | 247087
Track 1
Filename E:\eacrips\Michele Rosewoman's New Yor-Uba - A Musical Celebration of Cuba in America (2013) [FLAC]\Disc 2\01 - In Praise of Spiritual Guides.wav
Pre-gap length 0:00:02.00
Peak level 98.8 %
Extraction speed 4.1 X
Track quality 100.0 %
Test CRC 75B090A5
Copy CRC 75B090A5
Accurately ripped (confidence 2) [85A3EB67] (AR v2)
Copy OK
Track 2
Filename E:\eacrips\Michele Rosewoman's New Yor-Uba - A Musical Celebration of Cuba in America (2013) [FLAC]\Disc 2\02 - Perdon.wav
Pre-gap length 0:00:02.88
Peak level 98.8 %
Extraction speed 4.9 X
Track quality 100.0 %
Test CRC 4DEFB891
Copy CRC 4DEFB891
Accurately ripped (confidence 2) [5D1200DC] (AR v2)
Copy OK
Track 3
Filename E:\eacrips\Michele Rosewoman's New Yor-Uba - A Musical Celebration of Cuba in America (2013) [FLAC]\Disc 2\03 - Obalube.wav
Pre-gap length 0:00:03.65
Peak level 98.8 %
Extraction speed 5.1 X
Track quality 100.0 %
Test CRC 56AE21DC
Copy CRC 56AE21DC
Accurately ripped (confidence 2) [1C49FE99] (AR v2)
Copy OK
Track 4
Filename E:\eacrips\Michele Rosewoman's New Yor-Uba - A Musical Celebration of Cuba in America (2013) [FLAC]\Disc 2\04 - Where Water Meets Sky.wav
Pre-gap length 0:00:02.74
Peak level 98.8 %
Extraction speed 6.1 X
Track quality 100.0 %
Test CRC 000CDC8E
Copy CRC 000CDC8E
Accurately ripped (confidence 2) [C8E3B313] (AR v2)
Copy OK
Track 5
Filename E:\eacrips\Michele Rosewoman's New Yor-Uba - A Musical Celebration of Cuba in America (2013) [FLAC]\Disc 2\05 - Agua Dulce del Bosque.wav
Pre-gap length 0:00:01.98
Peak level 98.8 %
Extraction speed 6.5 X
Track quality 100.0 %
Test CRC F2FA611A
Copy CRC F2FA611A
Accurately ripped (confidence 2) [FD437BB9] (AR v2)
Copy OK
Track 6
Filename E:\eacrips\Michele Rosewoman's New Yor-Uba - A Musical Celebration of Cuba in America (2013) [FLAC]\Disc 2\06 - Warrior.wav
Pre-gap length 0:00:01.98
Peak level 98.8 %
Extraction speed 6.5 X
Track quality 100.0 %
Test CRC 4223E8D0
Copy CRC 4223E8D0
Accurately ripped (confidence 2) [BB4320DD] (AR v2)
Copy OK
Track 7
Filename E:\eacrips\Michele Rosewoman's New Yor-Uba - A Musical Celebration of Cuba in America (2013) [FLAC]\Disc 2\07 - Earth Secrets.wav
Pre-gap length 0:00:03.52
Peak level 98.8 %
Extraction speed 7.3 X
Track quality 100.0 %
Test CRC 4A55640B
Copy CRC 4A55640B
Accurately ripped (confidence 2) [52D775E2] (AR v2)
Copy OK
All tracks accurately ripped
No errors occurred
End of status report
---- CUETools DB Plugin V2.1.3
[CTDB TOCID: .GX5PdSq0WCipTp_R6J2IjThU1Q-] disk not present in database, Submit result: .GX5PdSq0WCipTp_R6J2IjThU1Q- has been uploaded
==== Log checksum 1AF537E64B1A43019B53716FBA781D59750DD1DF77B06E32BF7B4BA1D569AA49 ====
 
Содержание индексной карты (.CUE)
REM GENRE Jazz
REM DATE 2013
REM DISCID 640CDE07
REM COMMENT "ExactAudioCopy v1.0b3"
PERFORMER "Michele Rosewoman's New Yor-Uba"
TITLE "30 Years: A Musical Celebration of Cuba in America CD2"
FILE "01 - In Praise of Spiritual Guides (Eggun).wav" WAVE
TRACK 01 AUDIO
TITLE "In Praise of Spiritual Guides (Eggun)"
PERFORMER "Michele Rosewoman's New Yor-Uba"
INDEX 01 00:00:00
TRACK 02 AUDIO
TITLE "Perdon (Rumba)"
PERFORMER "Michele Rosewoman's New Yor-Uba"
INDEX 00 08:01:59
FILE "02 - Perdon (Rumba).wav" WAVE
INDEX 01 00:00:00
TRACK 03 AUDIO
TITLE "Obalube (Chango)"
PERFORMER "Michele Rosewoman's New Yor-Uba"
INDEX 00 09:04:00
FILE "03 - Obalube (Chango).wav" WAVE
INDEX 01 00:00:00
TRACK 04 AUDIO
TITLE "Where Water Meets Sky (Yemaya)"
PERFORMER "Michele Rosewoman's New Yor-Uba"
INDEX 00 04:46:34
FILE "04 - Where Water Meets Sky (Yemaya).wav" WAVE
INDEX 01 00:00:00
TRACK 05 AUDIO
TITLE "Agua Dulce del Bosque (Ochun)"
PERFORMER "Michele Rosewoman's New Yor-Uba"
INDEX 00 11:10:15
FILE "05 - Agua Dulce del Bosque (Ochun).wav" WAVE
INDEX 01 00:00:00
TRACK 06 AUDIO
TITLE "Warrior (Ochosi)"
PERFORMER "Michele Rosewoman's New Yor-Uba"
INDEX 00 07:30:54
FILE "06 - Warrior (Ochosi).wav" WAVE
INDEX 01 00:00:00
TRACK 07 AUDIO
TITLE "Earth Secrets (Babaluaye)"
PERFORMER "Michele Rosewoman's New Yor-Uba"
INDEX 00 04:56:38
FILE "07 - Earth Secrets (Babaluaye).wav" WAVE
INDEX 01 00:00:00
 
Отчет CUETools
[CUETools log; Date: 15.05.2015 0:34:50; Version: 2.1.5]
[CTDB TOCID: .GX5PdSq0WCipTp_R6J2IjThU1Q-] found.
Track | CTDB Status
1 | (2/2) Accurately ripped
2 | (2/2) Accurately ripped
3 | (2/2) Accurately ripped
4 | (2/2) Accurately ripped
5 | (2/2) Accurately ripped
6 | (2/2) Accurately ripped
7 | (2/2) Accurately ripped
[AccurateRip ID: 000f3e38-005b129c-640cde07] found.
Track [ CRC | V2 ] Status
01 [cc286eeb|85a3eb67] (0+2/2) Accurately ripped
02 [001387e2|5d1200dc] (0+2/2) Accurately ripped
03 [b688b658|1c49fe99] (0+2/2) Accurately ripped
04 [23263dd8|c8e3b313] (0+2/2) Accurately ripped
05 [71b6f88f|fd437bb9] (0+2/2) Accurately ripped
06 [b4f91907|bb4320dd] (0+2/2) Accurately ripped
07 [a022f382|52d775e2] (0+2/2) Accurately ripped
Track Peak [ CRC32 ] [W/O NULL] [ LOG ]
-- 98,8 [2626D8FF] [067671CA]
01 98,8 [75B090A5] [4C10B6FA] CRC32
02 98,8 [4DEFB891] [0C317D5A] CRC32
03 98,8 [56AE21DC] [94275546] CRC32
04 98,8 [000CDC8E] [5B4DDC60] CRC32
05 98,8 [F2FA611A] [CFFC0DFA] CRC32
06 98,8 [4223E8D0] [03886E85] CRC32
07 98,8 [4A55640B] [4AF544E7] CRC32
 
Об исполнителе (группе)
One of the most distinctively individualistic artists in both jazz and latin music, Michele Rosewoman's three main influences remain her mentor - the late great Ed Kelly, an Oakland- based jazz, blues and gospel pianist/organist - the permeating Oakland sounds of funk and R&B, and her early studies in Cuban folkloric percussion traditions. Cutting her teeth in the San Francisco Bay area scene, playing with such artists as Julian Priester, Julius Hemphill, Oliver Lake and others, Rosewoman moved to New York City in 1978. Support from the NEA facilitated the 1983 premiere of the pioneering 14--piece New Yor-Uba ensemble, featuring her mentor and associate Orlando 'Puntilla' Rios at the Public Theatre in New York City. Her recording debut in 1984 was as pianist and musical director of a popular Cuban Songo combo, Los Kimy. That year she was also commissioned by ASCAP/Meet the Composer to compose an orchestral work that was debuted by the Brooklyn Philharmonic Orchestra with improvisational ensemble. As a bandleader, her contemporary jazz recordings for trio, quartet and larger ensemble have been released on the Blue Note and Enja labels, including four with her acclaimed group Quintessence. She has also recorded with Oliver Lake, Greg Osby, Billy Bang and Ralph Peterson, among others. She has toured internationally, and performed at major jazz festivals, concert halls and clubs throughout the United States, Canada and Europe. A dedicated educator, Rosewoman continues to conduct workshops at colleges and universities throughout the US and has served as a faculty member and resident artist at New York University and Berklee College of Music. For the past 18 years Rosewoman has been teaching for jazz programs at The New School for Social Research and Jazz House Kids summer workshop in Montclair, New Jersey.
 
Об альбоме (сборнике)
"Dazzling tracks...startling for its balance of unfettered improvisation and undiluted Cuban folklore within a complex and often grand structure."- Larry Blumenfeld, The Wall Street Journal
"New Yor-uba is soulful evidence that Rosewoman is on to something significant...energetic, propulsive...fully integrated orchestrated brasses, saxophones, and a jazz back line, with traditional Yoruban chants sung to the heavy rhythmic accompaniment of congas and bata drums, ceremoniously arriving at sumptuous Ellington-like orchestrations..." - DownBeat
"Ms. Rosewoman's music – dissonant melodies, brass chorales, chromatic ballads and orchestrated vamps for brasses, saxophones, and a jazz rhythm section, as the groove shifted from the flow of the Santeria chants to the swing of a jazz band – was jazz that didn't simply use Afro-Cuban rhythms as decoration, but layered melodies and rhythms with equal force and weight." - The New York Times
On her landmark new album New Yor-Uba: 30 Years - A Musical Celebration of Cuba in America, pianist/composer/vocalist Michele Rosewoman pushes the envelope at the outer limits of jazz improvisation while keeping firmly rooted in both jazz and centuries-old Afro-Cuban folkloric tradition. Widely credited as being one of the first composers to synthesize sacred Cuban folkloric music with a thoroughly contemporary jazz concept, Rosewoman's magnum opus, double-cd set – the debut album released on her own Advance Dance Disques label - is the realization of a distinctive creative vision thirty years in the making. Through a successful Kickstarter campaign and the generous support of her backers and co-producers Neyda Martinez and Onel Mulet of Habana Harlem, Rosewoman's dream has reached fruition.
A disciple of legendary Cuban percussionist Orlando "Puntilla" Rios, her career as a cross-pollinating innovator seamlessly bridges both the jazz and latin genres. As a composer, she's achieved recognition from Chamber Music America and support from the National Endowment for the Arts. As a performer, over the course of more than four decades, she's collaborated and recorded with greats from both fields: Jimmy Heath and Tootie Heath, Celia Cruz, Steve Coleman, Julius Hemphill, Paquito D’Rivera, John Stubblefield, Rufus Reid, Billy Bang, Chocolate, Greg Osby, Miguel Zenon, Freddie Waits, Billy Hart, Reggie Workman, Oliver Lake, James Spaulding, Gary Bartz, Howard Johnson and Carlos Ward, among others. Rosewoman and her New Yor-Uba ensemble celebrate the release of the album at Jazz at Lincoln Center, with performances at Dizzy's Club Coca-Cola on September 30-October 1 and at the Lake George Jazz Festival on Saturday, September 14, 2013.
A pianist since the tender age of six, Rosewoman first became directly involved in African folkways in her teens via Cuban music when she began playing congas and percussion. While pursuing a career in jazz, these early explorations profoundly impacted Rosewoman's musical direction as she continued to explore and practice the ancient African-based drum/ vocal traditions that she would eventually come to synthesize in her music.
"One constantly expands tradition and the other strives to maintain an ancient tradition," Rosewoman explains. "They seemed to be opposite in some ways, and yet they always felt profoundly related. I saw parallels between the subtle and sophisticated rhythmic and harmonic aspects of jazz and the highly evolved rhythmic and vocal language of both rumba and bata traditions—the obscuring of the obvious, the ability to play time on a sophisticated level where the ‘one’ is not stated but implied by everything around it. As a composer and as a pianist, my approach is profoundly shaped by the rhythmic perspective of the bata drums and is evident in the way that I write and play. This enables me to integrate the forms without forcing any element to fit, and to retain the essence of each idiom."
Along with Rosewoman on piano, Rhodes and vocals, the album features a mighty three-piece bata (Yoruban talking drum) and conga section of Pedrito Martinez (who also contributes lead vocals), Abraham Rodriguez and Roman Diaz. The group also includes the all-star cast of Freddie Hendrix on trumpet and flugelhorn, Oliver Lake on soprano and alto saxophones and flute, Mike Lee on tenor saxophone and flute, Vincent Gardner on trombone, Howard Johnson on baritone saxophone and tuba, Yunior Terry on acoustic bass and Adam Cruz on drums, with additional contributions from percussionist Daniel Carbonell and singer Nina Rodriguez. Together they celebrate the Afro-Cuban orishas (the traditional Yoruban deities) throughout an eclectic, joyously kinetic mix of compositions united with and grounded in ancient African rhythms originating in Nigeria and Dahomey.
The first disc opens with Divine Passage, dedicated to the deity Eleggua: an energetically elegant, cinematic horn arrangement leads into duet improvisations and winds up to an animated outro afloat on a bed of hypnotic percussion. They follow with the celebratory track Dance for Agayu, where the rhythmic nature of the sequence of traditional (arara) melodies are so joyful it makes it hard to sit still. Natural Light (Obatala), piano and vocals setting the stage for a funk groove that reminds that funk is also an ancient African rhythm, in this case a springboard for animatedly expansive lead vocals by Pedrito Martinez and trumpet and piano solos. Por Ahora y Para Siempre, a shapeshifting composition with echoes of Monk and features a Lake solo that coalesces into warm lyricism and a suspense fully booming, extended bata interlude.
After the deep funk of Vamp for Ochun, a vocal feature for Martinez, there's the spaciously misterioso epic Old Calabar, setting Diaz' theatrical vocals against Rosewoman's coloristic Rhodes piano. The first disc concludes with Rezo a Ochun (Prayer for Ochun), Rosewoman's improvisation nimbly negotiating a thicket of trance-inducing vocal countermelodies as sung by Rosewoman and Rodriguez.
The second disc begins with In Praise of Spiritual Guides (for Eggun), firmly anchoring bright and balmy solos by Rosewoman, Hendrix and Lee in a warm, traditional folkloric groove. Pedro Flores' slinky rumba, Perdon, gets a new Rosewoman arrangement inspired by the Cuban ensemble Yoruba Andabo, setting up a dynamic vocal duet between Martinez and Rodriguez. The lyrical beauty of Obalube (Chango) is pushed to new heights with solos by Rosewoman and Lake.
The album's most epic track, Where Water Meets Sky (Yemaya) further explores the African origins of funk with a fabric of intricate horn parts woven into and emphasizing the groove building to a mighty crescendo propelled by the bata drums and Rosewoman's Rhodes. Agua Dulce Del Bosque (Ochun), a vivid tropical pastorale, works its way to a sultry slow groove spiced by solos by Lake on alto and Johnson on tuba. Warrior(Ochosi) is a purposeful, forceful horn-driven funk groove that winds up with a colorful vocal feature. The album ends up on with a rousing, soaring choir of voices on Earth Secrets (Babaluaye) a sequence of Afro-Cuban songs from the Orlando "Puntilla" Rios repertoire. Rosewoman's vision and arrangement here sheds light on the African roots of gospel, with a dynamic tuba feature by Johnson. Almost thirty years after the initial incarnation of this ensemble was conducted live by the late, great Lawrence D. "Butch" Morris, this album is the long-awaited summation of a unique creative vision began in Rosewoman's early years, uniting the best of two worlds: ancient African forms of song and rhythm that made their way to the US via Cuba, and Rosewoman's highly individualistic, evocatively expressive compositions and pianistic approach.
 
Состав
Freddie Hendrix - trumpet, flugelhorn
Oliver Lake - soprano saxophone, alto saxophone, flute
Mike Lee - tenor saxophone, flute
Vincent Gardner - trombone
Howard Johnson - baritone saxophone, tuba
Michele Rosewoman - piano, Rhodes, vocals
Yunior Terry - acoustic bass
Adam Cruz - drums
Pedrito Martinez - lead vocals, bata, congas
Roman Diaz - bata, congas, lead vocals (#5)
Abraham Rodriguez - bata (CD1#1,3,4,CD2#1,6), vocals, clave
Daniel Carbonell - bata (CD1#2,5,CD2#3,4,5)
Nina Rodriguez - additional vocals (CD1#1,3,5,CD2#1,3,4,6,7)
Michele Rosewoman (Olu Femi, Bob Stewart, Howard Johnson, Anthony Cox, Baikida Carroll, Rasul Siddik, John Stubblefield, Pheeroan Aklaff) "New Yoruba" - Jazz Jamboree [1984, Avant-Garde Jazz / Afro-Cuban Jazz, SATRip]
18:40
301
Нет комментариев. Ваш будет первым!