Поиск

(Post-Bop / Ethnic Fusion) Gilad Atzmon / The Oriental House Ensemble - Exile - 2003, FLAC (image+.cue), lossless

(Post-Bop / Ethnic Fusion) Gilad Atzmon / The Oriental House Ensemble - Exile - 2003, FLAC (image+.cue), lossless
Треклист:
Gilad Atzmon / The Oriental House Ensemble - Exile
Жанр: Post-Bop / Ethnic Fusion
Год выпуска диска: 2003
Производитель диска: Germany (Enja TIP-888 844)
Аудио кодек: FLAC
Тип рипа: image+.cue
Битрейт аудио: lossless
Продолжительность: 52:06
Gilad Atzmon: saxes, clarinet, flute
Frank Harrison: piano
Yaron Stavi: double bass
Asaf Sirkis: drums
Romano Viazzani: accordion
Koby Israelite: accordion
Peter Watson: accordion
Marcel Mamaliga: violin
Gabi Fortuna: flute
Guests:
Dhafer Youssef: vocal, oud
Reem Kelani: vocal
Tali Atzmon: vocal
1. Dal'ouna on the Return
2. Al-Quds
3. Jenin
4. Ouz
5. Orient House
6. Land of Canaan
7. Exile
8. La Côte
9. Epilogue
 
EAC Report
Exact Audio Copy V0.99 prebeta 5 from 4. May 2009
EAC extraction logfile from 16. January 2010, 21:59
Gilad Atzmon / Exile
Used drive : hp DVD-RAM GH40L Adapter: 0 ID: 1
Read mode : Secure
Utilize accurate stream : Yes
Defeat audio cache : Yes
Make use of C2 pointers : No
Read offset correction : 667
Overread into Lead-In and Lead-Out : No
Fill up missing offset samples with silence : Yes
Delete leading and trailing silent blocks : No
Null samples used in CRC calculations : Yes
Used interface : Installed external ASPI interface
Used output format : User Defined Encoder
Selected bitrate : 1024 kBit/s
Quality : High
Add ID3 tag : No
Command line compressor : C:\Program Files\Exact Audio Copy\Flac\flac.exe
Additional command line options : -6 -V -T "ARTIST=%a" -T "TITLE=%t" -T "ALBUM=%g" -T "DATE=%y" -T "TRACKNUMBER=%n" -T "GENRE=%m" -T "COMMENT=EAC FLAC -6" %s
TOC of the extracted CD
Track | Start | Length | Start sector | End sector
---------------------------------------------------------
1 | 0:00.00 | 4:48.49 | 0 | 21648
2 | 4:48.49 | 10:02.37 | 21649 | 66835
3 | 14:51.11 | 5:52.63 | 66836 | 93298
4 | 20:43.74 | 7:43.15 | 93299 | 128038
5 | 28:27.14 | 6:02.66 | 128039 | 155254
6 | 34:30.05 | 6:00.25 | 155255 | 182279
7 | 40:30.30 | 4:35.28 | 182280 | 202932
8 | 45:05.58 | 3:30.74 | 202933 | 218756
9 | 48:36.57 | 3:29.01 | 218757 | 234432
Range status and errors
Selected range
Filename C:\Users\Igor\Music\eac\Gilad Atzmon - Exile.wav
Peak level 98.8 %
Range quality 100.0 %
Test CRC 8336A2EF
Copy CRC 8336A2EF
Copy OK
No errors occurred
AccurateRip summary
Track 1 not present in database
Track 2 not present in database
Track 3 not present in database
Track 4 not present in database
Track 5 not present in database
Track 6 not present in database
Track 7 not present in database
Track 8 not present in database
Track 9 not present in database
None of the tracks are present in the AccurateRip database
End of status report
11:55
251
Нет комментариев. Ваш будет первым!