Поиск

(Brazilian Jazz/Samba Jazz) Ernani Filho - Dois Amigos, As Musicas De Ary Barroso Na Voz de Ernani Filho - 1963, FLAC (image+.cue), lossless

Треклист:
Ernani Filho - Dois Amigos, As Musicas De Ary Barroso Na Voz de Ernani Filho
Жанр: Brazilian Jazz/Samba Jazz
Год выпуска диска: 1963
Производитель диска: EMI-Odoen - MOFB 3320 - Brazil
Аудио кодек: FLAC
Тип рипа: image+.cue
Битрейт аудио: lossless
Продолжительность: 33:41
Трэклист:
01 - Balada da Saudade (Ary Barroso)
02 - Tufão (Ary Barroso)
03 - No Rancho Fundo (Ary Barroso / Lamartine Babo)
04 - Ocultei (Ary Barroso)
05 - Maria (Ary Barroso / Luis Peixoto)
06 - Risque (Ary Barroso)
07 - Pierrot (Ary Barroso)
08 - Cantiga de Enganar Tristeza (Ary Barroso / Thiago de Mello)
09 - Já Era Tempo (Ary Barroso / Vinicius de Moraes)
10 - Inquietação (Ary Barroso)
11 - Dois Amigos (Ary Barroso)
12 - Trapo de Gente (Ary Barroso)
Доп. информация:
 
Scans
 
Info
Это Эрнани Фил - Dois Друзья | Как Musicas де-Ари Баррозу на Вос де Эрнани Филью (1963), для Одеон, дань альбом, записанный Ари Баррозу любимым переводчиком, в соответствии с вкладышем Ари Баррозу отмечает, имеющиеся на задней панели. Это действительно интересно. "Эрнани" Фил начал свою карьеру в 1938 году, запись нескольких 78RPMs и по причинам, которые я не мог проверить, он ушел рано, вероятно, как раз перед этим альбомом, который является единственным, записанных в формате 12 "и последняя запись" Эрнани "Фил's.
This is Ernani Filho - Dois Amigos | As Musicas de Ary Barroso na Voz de Ernani Filho (1963), for Odeon, a tribute album recorded by Ary Barroso favorite interpreter, according with Ary Barroso liner notes available at the back cover. This is really interesting. Ernani Filho started his career in 1938, recording several 78RPMs and for reasons that I could not check, he retired early, probably, just before this album, which is the only one recorded in the 12' format and the last Ernani Filho's record.
 
EAC Log
Exact Audio Copy V0.99 prebeta 5 from 4. May 2009
EAC extraction logfile from 15. January 2010, 20:21
Ernani Filho / Dois Amigos, As Musicas De Ary Barroso Na Voz de Ernani Filho
Used drive : HL-DT-STDVDRAM GH20NS15 Adapter: 0 ID: 0
Read mode : Secure
Utilize accurate stream : Yes
Defeat audio cache : Yes
Make use of C2 pointers : No
Read offset correction : 667
Overread into Lead-In and Lead-Out : No
Fill up missing offset samples with silence : Yes
Delete leading and trailing silent blocks : No
Null samples used in CRC calculations : Yes
Used interface : Installed external ASPI interface
Used output format : User Defined Encoder
Selected bitrate : 1024 kBit/s
Quality : High
Add ID3 tag : No
Command line compressor : C:\Program Files\Exact Audio Copy\Flac\flac.exe
Additional command line options : -8 -A tukey(0.25) -A gauss(0.1875) -b 4096 -V -T "artist=%a" -T "title=%t" -T "album=%g" -T "date=%y" -T "tracknumber=%n" -T "genre=%m" %s --sector-align
TOC of the extracted CD
Track | Start | Length | Start sector | End sector
---------------------------------------------------------
1 | 0:00.00 | 2:53.29 | 0 | 13003
2 | 2:53.29 | 2:39.61 | 13004 | 24989
3 | 5:33.15 | 3:02.69 | 24990 | 38708
4 | 8:36.09 | 2:32.73 | 38709 | 50181
5 | 11:09.07 | 3:11.62 | 50182 | 64568
6 | 14:20.69 | 2:35.20 | 64569 | 76213
7 | 16:56.14 | 2:11.30 | 76214 | 86068
8 | 19:07.44 | 3:08.23 | 86069 | 100191
9 | 22:15.67 | 2:40.59 | 100192 | 112250
10 | 24:56.51 | 3:03.73 | 112251 | 126048
11 | 28:00.49 | 3:14.61 | 126049 | 140659
12 | 31:15.35 | 2:25.60 | 140660 | 151594
Range status and errors
Selected range
Filename D:\Torrents.ru\Ernani Filho\Ernani Filho - Dois Amigos, As Musicas De Ary Barroso Na Voz de Ernani Filho\Ernani Filho - Dois Amigos, As Musicas De Ary Barroso Na Voz de Ernani Filho.wav
Peak level 100.0 %
Range quality 100.0 %
Test CRC B8FB36AA
Copy CRC B8FB36AA
Copy OK
No errors occurred
End of status report
 
Audiochecker
AUDIOCHECKER v2.0 beta (build 457) - by Dester - opdester@freemail.hu
~~~~~~~~~~~~~~~~~~~~~~~~~~~~~~~~~~
-=== DO NOT EDIT THIS FILE! ===-
Path: ...\Ernani Filho - Dois Amigos, As Musicas De Ary Barroso Na Voz de Ernani Filho
1 -=- Ernani Filho - Dois Amigos, As Musicas De Ary Barroso Na Voz de Ernani Filho.flac -=- CDDA (100%)
128344500
 
Tau Analyzer
Download available for power users only.
10:54
289
Нет комментариев. Ваш будет первым!