Поиск

(Post-Bop / Ethnic) Ethnic Heritage Ensemble - Papa's Bounce - 1998, FLAC (image+.cue), lossless

(Post-Bop / Ethnic) Ethnic Heritage Ensemble - Papa's Bounce - 1998, FLAC (image+.cue), lossless
Треклист:
Ethnic Heritage Ensemble - Papa's Bounce
Жанр: Post-Bop / Ethnic
Год выпуска диска: 1998
Производитель диска: USA (CIMP 167)
Аудио кодек: FLAC
Тип рипа: image+.cue
Битрейт аудио: lossless
Продолжительность: 1:10:39
Kahil El'Zabar drums, voice, thumb piano
Ernest Dawkins alto and tenor saxophones, percussion
Joseph Bowie trombone, percussion, voice
Atu Harold Murray percussion, vaccine (flute)
1. Papa's Bounce
2. Dance'm
3. Song of My Self
4. Blue Rwanda
5. Spirit Dancer
6. Indestructible Consciousness
7. Sunshine Serenade

 
CIMP Release Notes
The Ethnic Heritage Ensemble was started by Kahil El’Zabar in 1973 and over the years has, like the best creative improvised music, evolved, negotiated encounters, re-formed itself and, in general, invented strategies to continue to present music that is both satisfying and challenging. This is a relatively new incarnation of the group. Joseph Bowie joined in 1986 while Atu Murray and Ernest Dawkins joined in 1997. At this time, only this and the previously issued Continuum (Delmark Records) document this edition of the Ethnic Heritage Ensemble on recordings.
But, even though this is a new grouping, relative to the longevity of the Ensemble, they already have the focus and glide of a long established group. However, if one accounts for the larger family of neighbors, colleagues, friends, and teachers, this grouping rooted long before this particular professional affiliation, albeit less formally.
Watching the individuals go about their various activities as friends, independent business executives, musicians, cultural keepers and disseminators, I’m struck at how smoothly they all operate. There’s a self-confidence and integration and sharing of activities that is, for the most part, smooth, focused and mutually respectful. Kahil is (and surrounds himself with artists who are) very professional. It is a state not uncommon among artists who have attained a certain level of competency and longevity. What is not so common is the level of creative involvement which they demand of themselves. This is a group not interested in coasting on or imitating their codified successes. The Ethnic Heritage Ensemble is not here to state the familiar. As a result, they have not become jaded but remain on the cutting edge. Quite simply, their artistry is still about statement, not restatement. Of course, statement without purpose of content means little and is best left to the pretenders and adolescents. The Ethnic Heritage Ensemble is the other half of music: good music.
This was Kahil’s second trip to The Spirit Room, the first being with his Ritual Trio (Ari Brown & Malachi Favors) on 6/10/97, an outing which produced Jitterbug Junction (CIMP 150). Having spent about 5 days with Kahil in production, I’ve yet to see him underestimate the listener, or his own intelligence, or be satisfied with material which doesn’t have a depth of substance and a technical excellence.
Here is a concert, an offering of artistry, which was worth our time and effort and, hopefully, yours as well. ~ Robert D. Rusch, CIMP
 
EAC Report
Exact Audio Copy V0.99 prebeta 5 from 4. May 2009
EAC extraction logfile from 13. December 2009, 17:02
Ethnic Heritage Ensemble / Papa's Bounce
Used drive : TSSTcorpCD/DVDW SH-S182M Adapter: 1 ID: 0
Read mode : Secure
Utilize accurate stream : Yes
Defeat audio cache : Yes
Make use of C2 pointers : No
Read offset correction : 6
Overread into Lead-In and Lead-Out : No
Fill up missing offset samples with silence : Yes
Delete leading and trailing silent blocks : No
Null samples used in CRC calculations : Yes
Used interface : Installed external ASPI interface
Used output format : User Defined Encoder
Selected bitrate : 1024 kBit/s
Quality : High
Add ID3 tag : No
Command line compressor : C:\Program Files (x86)\Exact Audio Copy\Flac\flac.exe
Additional command line options : -8 -V -T "ARTIST=%a" -T "TITLE=%t" -T "ALBUM=%g" -T "DATE=%y" -T "TRACKNUMBER=%n" -T "GENRE=%m" -T "COMMENT=EAC FLAC -8" %s
TOC of the extracted CD
Track | Start | Length | Start sector | End sector
---------------------------------------------------------
1 | 0:00.00 | 14:34.16 | 0 | 65565
2 | 14:34.16 | 6:12.33 | 65566 | 93498
3 | 20:46.49 | 10:03.31 | 93499 | 138754
4 | 30:50.05 | 11:10.52 | 138755 | 189056
5 | 42:00.57 | 10:16.35 | 189057 | 235291
6 | 52:17.17 | 9:00.62 | 235292 | 275853
7 | 61:18.04 | 9:20.70 | 275854 | 317923
Range status and errors
Selected range
Filename C:\home\eac\Ethnic Heritage Ensemble - Papa's Bounce.wav
Peak level 100.0 %
Range quality 100.0 %
Test CRC 897AD434
Copy CRC 897AD434
Copy OK
No errors occurred
AccurateRip summary
Track 1 not present in database
Track 2 not present in database
Track 3 not present in database
Track 4 not present in database
Track 5 not present in database
Track 6 not present in database
Track 7 not present in database
None of the tracks are present in the AccurateRip database
End of status report

Arguably their finest recording.
По всем вопросам пишите личное сообщение пользователю M0p94ok.
10:37
164
Нет комментариев. Ваш будет первым!