Поиск

(Latin Jazz, Cuba, Son, Bolero, World Music) Buena Vista Social Club - Buena Vista Social Club (produced by Ry Cooder) - 1997, FLAC (image+.cue), lossless

(Latin Jazz, Cuba, Son, Bolero, World Music) Buena Vista Social Club - Buena Vista Social Club (produced by Ry Cooder) - 1997, FLAC (image+.cue), lossless
Треклист:
Buena Vista Social Club - Buena Vista Social Club (1997)
(produced by Ry Cooder)
FLAC-image
CUE/LOG
Complete covers

Жанр: Latin Jazz, Cuba, Son, Bolero, World Music
Год выпуска диска: 1997
Производитель диска: Германия (Indigo)
Аудио кодек: FLAC
Тип рипа: image+.cue
Битрейт аудио: lossless
Продолжительность: 60:06 min
Трэклист:
1. Chan Chan 4:18
2. De Camino A La Vereda 5:04
3. El Cuarto De Tula 7:25
4. Pueblo Nuevo 6:06
5. Dos Gardenias 3:04
6. ¿Y Tú Qué Has Hecho? 3:15
7. Veinte Anos 3:31
8. El Carretero 3:30
9. Candela 5:29
10. Amor De Loca Juventud 3:23
11. Orgullecida 3:19
12. Murmullo
13. Buena Vista Social Club
14. La Bayamesa

 
Доп. информация (Wikipedia):
Buena Vista Social Club — музыкальный проект, созданный по инициативе американского музыканта и композитора Рая Кудера, своего рода сборная команда кубинских эстрадных музыкантов старой школы, пик популярности которых пришёлся на период, предшествовавший кубинской революции 1959 года. Название проекта (в англизированной форме) было позаимствовано у популярного клуба, существовавшего в Гаване в 1940-х годах. Первоначальной целью проекта было сохранение музыкальной культуры Кубы «старой школы» (1930-е—1940-е годы) для потомков. В настоящее время «Буэна Виста Сошиал Клаб» — успешный музыкальный бренд, объединяющий значительное количество музыкантов, выступающих как вместе (под названием оркестр «Буэна Виста Сошиал Клаб»), так и по отдельности.
Первый альбом проекта, также названный «Buena Vista Social Club», вышел в 1997 году. Большинству музыкантов ансамбля на тот момент было за 70 лет. В 2003 году журнал Rolling Stone внёс данный альбом в список 500 лучших альбомов всех времён под номером 260.
Славу «Буэна Висты» удвоил кинорежиссёр Вим Вендерс, снявший в 1998 году одноимённый фильм, посвящённый проекту. На многочисленных кинофестивалях фильм неоднократно признавался лучшей документальной лентой и удостоился престижных наград.

Источник: собственный рип
 
Отчёт EAC
Exact Audio Copy V0.99 prebeta 5 from 4. May 2009
EAC extraction logfile from 28. December 2009, 14:52
Buena Vista Social Club / Buena Vista Social Club
Used drive : CyberDrvCW038D CD-R/RW Adapter: 1 ID: 1
Read mode : Secure
Utilize accurate stream : Yes
Defeat audio cache : Yes
Make use of C2 pointers : No
Read offset correction : 733
Overread into Lead-In and Lead-Out : No
Fill up missing offset samples with silence : Yes
Delete leading and trailing silent blocks : No
Null samples used in CRC calculations : Yes
Used interface : Native Win32 interface for Win NT & 2000
Used output format : User Defined Encoder
Selected bitrate : 320 kBit/s
Quality : High
Add ID3 tag : No
Command line compressor : C:\[...]\flac.exe
Additional command line options : -8 -V -T "Artist=%a" -T "Title=%t" -T "Album=%g" -T "Date=%y" -T "Tracknumber=%n" -T "Genre=%m" %s -o %d
TOC of the extracted CD
Track | Start | Length | Start sector | End sector
---------------------------------------------------------
1 | 0:00.00 | 4:18.52 | 0 | 19401
2 | 4:18.52 | 5:03.73 | 19402 | 42199
3 | 9:22.50 | 7:25.32 | 42200 | 75606
4 | 16:48.07 | 6:06.53 | 75607 | 103109
5 | 22:54.60 | 3:04.02 | 103110 | 116911
6 | 25:58.62 | 3:15.35 | 116912 | 131571
7 | 29:14.22 | 3:31.58 | 131572 | 147454
8 | 32:46.05 | 3:30.10 | 147455 | 163214
9 | 36:16.15 | 5:29.15 | 163215 | 187904
10 | 41:45.30 | 3:23.02 | 187905 | 203131
11 | 45:08.32 | 3:19.23 | 203132 | 218079
12 | 48:27.55 | 3:51.25 | 218080 | 235429
13 | 52:19.05 | 4:52.65 | 235430 | 257394
14 | 57:11.70 | 2:54.22 | 257395 | 270466
Range status and errors
Selected range
Filename C:\[...]\Buena Vista Social Club - Buena Vista Social Club.wav
Peak level 100.0 %
Range quality 99.9 %
Test CRC 798872E0
Copy CRC 798872E0
Copy OK
No errors occurred
AccurateRip summary
Track 1 accurately ripped (confidence 200) [BB3D6DD2]
Track 2 accurately ripped (confidence 200) [498A1B11]
Track 3 accurately ripped (confidence 200) [C36F8557]
Track 4 accurately ripped (confidence 200) [8007427E]
Track 5 accurately ripped (confidence 200) [64E05344]
Track 6 accurately ripped (confidence 200) [936299C7]
Track 7 accurately ripped (confidence 200) [39DC3680]
Track 8 accurately ripped (confidence 200) [017C0EA4]
Track 9 accurately ripped (confidence 200) [3EB07343]
Track 10 accurately ripped (confidence 200) [F1F475E0]
Track 11 accurately ripped (confidence 200) [CBBC2471]
Track 12 accurately ripped (confidence 200) [BE04BB53]
Track 13 accurately ripped (confidence 200) [994362EC]
Track 14 accurately ripped (confidence 200) [887D5056]
All tracks accurately ripped
End of status report
По всем вопросам пишите личное сообщение пользователю M0p94ok.
10:38
216
Нет комментариев. Ваш будет первым!