Поиск

(Post-Bop, Contemporary Jazz) [CD] Billy Childs - Rebirth - 2017, FLAC (tracks+.cue), lossless

(Post-Bop, Contemporary Jazz) [CD] Billy Childs - Rebirth - 2017, FLAC (tracks+.cue), lossless
Издатель (лейбл):
Треклист:
Billy Childs - Rebirth
Жанр: Post-Bop, Contemporary Jazz
Носитель: CD
Страна-производитель диска (релиза): США
Год издания: 2017
Издатель (лейбл): Mack Avenue
Номер по каталогу: MAC1122
Аудиокодек: FLAC (*.flac)
Тип рипа: tracks+.cue
Битрейт аудио: lossless
Продолжительность: 56:32
Источник (релизер): shitlipsdotbiz
Наличие сканов в содержимом раздачи: нет
Треклист:
01. Backwards Bop (Childs) - 6:38
02. Rebirth (Childs-Acuna) - 7:38
03. Stay (Childs) - 5:59
04. Dance of Shiva (Childs) - 6:51
05. Tightrope (Childs) - 6:37
06. The Starry Night (Childs) - 8:10
07. The Windmills of Your Mind (Legrand-Bergman-Bergman) - 7:10
08. Peace (Silver) - 7:29
Состав:
Billy Childs - piano
Steve Wilson - alto saxophone, soprano saxophone
Hans Glawischnig - acoustic bass
Eric Harland - drums
Claudia Acuna (#2), Alicia Olatuja (#3) – vocals (on Rebirth)
Ido Meshulam - trombone (#2)
Rogerio Boccato - percussion (#2)
Recorded at Avatar Studio C, New York on December 2-4, 2015.
 
Лог создания рипа
Exact Audio Copy V1.1 from 23. June 2015
EAC extraction logfile from 18. August 2017, 13:15
Billy Childs / Rebirth
Used drive  : HL-DT-STDVDRAM GT50N   Adapter: 1  ID: 0
Read mode               : Secure
Utilize accurate stream : Yes
Defeat audio cache      : Yes
Make use of C2 pointers : No
Read offset correction                      : 103
Overread into Lead-In and Lead-Out          : No
Fill up missing offset samples with silence : Yes
Delete leading and trailing silent blocks   : No
Null samples used in CRC calculations       : Yes
Used interface                              : Native Win32 interface for Win NT & 2000
Gap handling                                : Appended to previous track
Used output format              : User Defined Encoder
Selected bitrate                : 1024 kBit/s
Quality                         : High
Add ID3 tag                     : No
Command line compressor         : C:\Program Files (x86)\Exact Audio Copy\Flac\flac.exe
Additional command line options : -8 -e -V -T "ARTIST=%artist%" -T "TITLE=%title%" -T "ALBUM=%albumtitle%" -T "DATE=%year%" -T "TRACKNUMBER=%tracknr%" -T "GENRE=%genre%" -T "PERFORMER=%albuminterpret%" -T "COMPOSER=%composer%" %haslyrics%--tag-from-file=LYRICS="%lyricsfile%"%haslyrics% -T "ALBUMARTIST=%albumartist%" -T "DISCNUMBER=%cdnumber%" -T "TOTALDISCS=%totalcds%" -T "TOTALTRACKS=%numtracks%" -T "COMMENT=%comment%" %source% -o %dest%
TOC of the extracted CD
     Track |   Start  |  Length  | Start sector | End sector
    ---------------------------------------------------------
        1  |  0:00.00 |  6:37.53 |         0    |    29827
        2  |  6:37.53 |  7:38.16 |     29828    |    64193
        3  | 14:15.69 |  5:58.49 |     64194    |    91092
        4  | 20:14.43 |  6:50.44 |     91093    |   121886
        5  | 27:05.12 |  6:37.20 |    121887    |   151681
        6  | 33:42.32 |  8:09.55 |    151682    |   188411
        7  | 41:52.12 |  7:09.53 |    188412    |   220639
        8  | 49:01.65 |  7:28.72 |    220640    |   254311
Track  1
     Filename C:\Rips v2\Billy Childs - Rebirth [MAC1122] (FLAC)\01 - Backwards Pop.wav
     Pre-gap length  0:00:02.00
     Peak level 91.2 %
     Extraction speed 2.3 X
     Track quality 99.9 %
     Test CRC 9434DCA3
     Copy CRC 9434DCA3
     Track not present in AccurateRip database
     Copy OK
Track  2
     Filename C:\Rips v2\Billy Childs - Rebirth [MAC1122] (FLAC)\02 - Rebirth.wav
     Peak level 91.2 %
     Extraction speed 3.2 X
     Track quality 100.0 %
     Test CRC 35B596DA
     Copy CRC 35B596DA
     Track not present in AccurateRip database
     Copy OK
Track  3
     Filename C:\Rips v2\Billy Childs - Rebirth [MAC1122] (FLAC)\03 - Stay.wav
     Peak level 91.2 %
     Extraction speed 1.8 X
     Track quality 100.0 %
     Test CRC 4C511AED
     Copy CRC 4C511AED
     Track not present in AccurateRip database
     Copy OK
Track  4
     Filename C:\Rips v2\Billy Childs - Rebirth [MAC1122] (FLAC)\04 - Dance of Shiva.wav
     Peak level 91.2 %
     Extraction speed 3.9 X
     Track quality 100.0 %
     Test CRC 0EC6AFCA
     Copy CRC 0EC6AFCA
     Track not present in AccurateRip database
     Copy OK
Track  5
     Filename C:\Rips v2\Billy Childs - Rebirth [MAC1122] (FLAC)\05 - Tightrope.wav
     Peak level 91.1 %
     Extraction speed 3.7 X
     Track quality 100.0 %
     Test CRC B4A5D0FB
     Copy CRC B4A5D0FB
     Track not present in AccurateRip database
     Copy OK
Track  6
     Filename C:\Rips v2\Billy Childs - Rebirth [MAC1122] (FLAC)\06 - The Starry Night.wav
     Peak level 91.2 %
     Extraction speed 2.3 X
     Track quality 100.0 %
     Test CRC F9B457BD
     Copy CRC F9B457BD
     Track not present in AccurateRip database
     Copy OK
Track  7
     Filename C:\Rips v2\Billy Childs - Rebirth [MAC1122] (FLAC)\07 - The Windmills of Your Mind.wav
     Peak level 91.2 %
     Extraction speed 2.6 X
     Track quality 100.0 %
     Test CRC A64924D3
     Copy CRC A64924D3
     Track not present in AccurateRip database
     Copy OK
Track  8
     Filename C:\Rips v2\Billy Childs - Rebirth [MAC1122] (FLAC)\08 - Peace.wav
     Peak level 91.2 %
     Extraction speed 2.6 X
     Track quality 100.0 %
     Test CRC 36E8786E
     Copy CRC 36E8786E
     Track not present in AccurateRip database
     Copy OK
None of the tracks are present in the AccurateRip database
No errors occurred
End of status report
---- CUETools DB Plugin V2.1.6
[CTDB TOCID: 7tWPE7y8BkOB292PJ8id1Aivzj4-] found
Submit result: 7tWPE7y8BkOB292PJ8id1Aivzj4- has been confirmed
Track | CTDB Status
  1   | (4/4) Accurately ripped
  2   | (4/4) Accurately ripped
  3   | (4/4) Accurately ripped
  4   | (4/4) Accurately ripped
  5   | (4/4) Accurately ripped
  6   | (4/4) Accurately ripped
  7   | (4/4) Accurately ripped
  8   | (4/4) Accurately ripped
==== Log checksum 79F4552F668864E11BB42E9B9914038A37F704CEC976C8C6C90FAD55AF712B89 ====
 
 
Содержание индексной карты (.CUE)
REM GENRE Jazz
REM DATE 2017
REM DISCID 6B0D3E08
REM COMMENT "ExactAudioCopy v1.1"
CATALOG 0673203112223
PERFORMER "Billy Childs"
TITLE "Rebirth"
FILE "01 - Backwards Bop.wav" WAVE
  TRACK 01 AUDIO
    TITLE "Backwards Bop"
    PERFORMER "Billy Childs"
    ISRC USMAR1712201
    INDEX 01 00:00:00
FILE "02 - Rebirth.wav" WAVE
  TRACK 02 AUDIO
    TITLE "Rebirth"
    PERFORMER "Billy Childs"
    ISRC USMAR1712202
    INDEX 01 00:00:00
FILE "03 - Stay.wav" WAVE
  TRACK 03 AUDIO
    TITLE "Stay"
    PERFORMER "Billy Childs"
    ISRC USMAR1712203
    INDEX 01 00:00:00
FILE "04 - Dance of Shiva.wav" WAVE
  TRACK 04 AUDIO
    TITLE "Dance of Shiva"
    PERFORMER "Billy Childs"
    ISRC USMAR1712204
    INDEX 01 00:00:00
FILE "05 - Tightrope.wav" WAVE
  TRACK 05 AUDIO
    TITLE "Tightrope"
    PERFORMER "Billy Childs"
    ISRC USMAR1712205
    INDEX 01 00:00:00
FILE "06 - The Starry Night.wav" WAVE
  TRACK 06 AUDIO
    TITLE "The Starry Night"
    PERFORMER "Billy Childs"
    ISRC USMAR1712206
    INDEX 01 00:00:00
FILE "07 - The Windmills of Your Mind.wav" WAVE
  TRACK 07 AUDIO
    TITLE "The Windmills of Your Mind"
    PERFORMER "Billy Childs"
    ISRC USMAR1712207
    INDEX 01 00:00:00
FILE "08 - Peace.wav" WAVE
  TRACK 08 AUDIO
    TITLE "Peace"
    PERFORMER "Billy Childs"
    ISRC USMAR1712208
    INDEX 01 00:00:00
 
 
Отчет CUETools
[CUETools log; Date: 18.02.2018 15:29:29; Version: 2.1.5]
[CTDB TOCID: 7tWPE7y8BkOB292PJ8id1Aivzj4-] found.
Track | CTDB Status
  1   | (10/10) Accurately ripped
  2   | (10/10) Accurately ripped
  3   | (10/10) Accurately ripped
  4   | (10/10) Accurately ripped
  5   | (10/10) Accurately ripped
  6   | (10/10) Accurately ripped
  7   | (10/10) Accurately ripped
  8   | (10/10) Accurately ripped
[AccurateRip ID: 00111f00-007293d6-6b0d3e08] found.
Track   [  CRC   |   V2   ] Status
 01     [a8a89b8c|3fd55003] (0+2/2) Accurately ripped
 02     [28021080|28866813] (0+2/2) Accurately ripped
 03     [47c29c51|8a6eb151] (0+2/2) Accurately ripped
 04     [838bbd25|481a87f4] (0+2/2) Accurately ripped
 05     [1dc3c270|6e513fda] (0+2/2) Accurately ripped
 06     [98950b24|32a907ce] (0+2/2) Accurately ripped
 07     [d0582161|fa5de076] (0+2/2) Accurately ripped
 08     [8ccc5f78|51647fe0] (0+2/2) Accurately ripped
Track Peak [ CRC32  ] [W/O NULL] [  LOG   ]
 --   91,2 [9BD2AC4A] [B88A56DA]
 01   91,2 [9434DCA3] [F84893CE]   CRC32
 02   91,2 [35B596DA] [C11625FA]   CRC32
 03   91,2 [4C511AED] [C886D6B8]   CRC32
 04   91,2 [0EC6AFCA] [D20ED053]   CRC32
 05   91,1 [B4A5D0FB] [D2273995]   CRC32
 06   91,2 [F9B457BD] [9C13B1EF]   CRC32
 07   91,1 [A64924D3] [BFBA9C0D]   CRC32
 08   91,2 [36E8786E] [AAFF19ED]   CRC32
 
 
Review by Dan Bilawsky
It's been a while since we've heard pianist Billy Childs really dig in. While he certainly hasn't been dormant, reaching tremendous artistic heights in semi-recent times with a pair of highly refined chamber jazz explorations and a much-lauded tribute to Laura Nyro, the Childs of yore—the man that would throw down the gauntlet night after night while in the employ of legends like trumpet titan Freddie Hubbard or trombonist J.J. Johnson—hasn't been heard from in a while. Rebirth brings that part of Childs' past back into view, but it also continues to shine a light on his clarity of expression and his incredible skills in the arranging department. It's punctilious and unpredictably powerful all at once. Believe it or not, you can have it both ways. At least, that is, if you're Billy Childs.
While those aforementioned post-millennial winners were well-staffed affairs—the chamber ensemble projects were chock full or orchestral trappings and the Nyro album had a guest list that ran a mile long—Childs pares things down for this one, running lean in the personnel department. For six of the eight tracks, it's just a quartet at play. Of course, referring to the marshaled forces of Childs, saxophonist Steve Wilson, bassist Hans Glawischnig, and drummer Eric Harland as "just a quartet" is akin to referencing the New York Yankees as "just a baseball team." These are heavy hitters that came to play. That fact is made abundantly clear right of the gate on "Backwards Bop," one of three tunes on this program that Childs first recorded in his Windham Hill days in the '80s. It's a bold opening stroke, setting the bar incredibly high with precision unison lines, sharp turns, and powerful solo stands. Glawischnig is like a tightly wound spring, Childs works with an authoritative tone that never dulls or blurs his incredibly articulate touch, Wilson comes off like a shrewd harmonic navigator, and Harland puts his monumental chops to good use. It's the perfect example of how to hook the ear from the start.
The pair of guest-enhanced tracks—one a unique yet stylistically congruent follow-up to "Backwards Bop" with appearances from trombonist Ido Meshulam, percussionist Rogerio Boccato, and vocalist Claudia Acuna, and the other a ballad with vocalist Alicia Olatuja in the spotlight—both immediately follow that slam dunk of an opener. Acuña co-wrote the title track, a piece that benefits greatly from her inimitable wordless vocals. Harland creates a steadily skittering backdrop that gives the song a nervous energy, Wilson's soprano takes to the sky, and Childs scampers around, mixing playfulness and potency in his piano work. "Stay," on the other hand, does just that, giving Olatuja a chance to shine in a mellow musical climate that never really intensifies.
The five remaining numbers are gratifying in so many ways. "Dance Of Shiva," ridiculously intricate in its design, engineering, and realization, features some startlingly fresh statements from Childs and Wilson; "Tightrope" finds all four men moving with lighter steps and listening closely, painting and dancing a varicolored waltz together; "The Starry Night" suggests its title through the dreamiest of piano forewords, skyrockets into the stratosphere with Wilson's soprano acting as the nose cone of the ship, and settles into orbit for solos; and "The Windmills Of Your Mind" glows and burns a deep red, with Childs and company drawing out the most intense flavor notes and emotions buried in the song's structure. Then serenity sets in for the closer—a poetic (piano and saxophone) duo take on Horace Silver's "Peace."
Childs hasn't always put all of his talent cards on the table at once, suppressing one aspect of his artistry in deference to others at times, so it's nice to see that change with Rebirth. He's showing his full hand here—chops, nuance, composing, arranging, and all—and it's a musical royal flush if ever there was one.
Any questions - support@pro-jazz.com
To become a power user - read FAQ.
08:32
218
Нет комментариев. Ваш будет первым!