Поиск

(Post-Bop) [CD] Mose Allison - Ramblin' With Mose (1958) - 2005, FLAC (tracks+.cue), lossless

(Post-Bop) [CD] Mose Allison - Ramblin' With Mose (1958) - 2005, FLAC (tracks+.cue), lossless
Mose Allison - Ramblin' With Mose (1958) Жанр: Post-Bop
Носитель: CD
Год издания: 2005
Издатель (лейбл): Prestige/Concord/OJC
Номер по каталогу: OJCCD-1109-2
Аудиокодек: FLAC (*.flac)
Тип рипа: tracks+.cue
Битрейт аудио: lossless
Продолжительность: 52:51
Источник (релизер): другой трекер
Наличие сканов в содержимом раздачи: да
Треклист:
01. I Got A Right To Cry (2:52)
02. Old Devil Moon (5:11)
03. The Minstrels (3:30)
04. You Belong To Me (4:24)
05. Stranger In Paradise (5:30)
06. The Kissin' Bug (4:33)
07. Ramble (3:13)
08. Saritha (3:56)
09. Old Man John (2:20)
10. Ingenue (3:04)
11. Old Devil Moon (alt tk) (5:03)
12. Stranger In Paradise (alt tk) (5:52)
13. Ramble (alt tk) (3:23)
Personnel:
Mose Allison - p, vo (1)
Addison Farmer - b
Ronnie Free - d
Rec.: Van Gelder Studio, Hackensack, NJ, April 18, 1958.
Released in February 1962.
 
 
Несколько слов на английском
Through a career spanning a half-century, Mose Allison has been known mostly for his bluesy hipster vocals and comical compositions like "Your Mind is on Vacation, But Your Mouth is Working Overtime. But he's also a fine bebop-flavored pianist who even spent time back in the '50s in the rhythm sections of such jazz titans as Stan Getz, Al Cohn and Zoot Sims.
The recently reissued Ramblin' with Mose, originally released in 1958, puts Allison's piano front and center, leading a trio with Addison Farmer on bass and Ronnie Free on drums. There's just one vocal here, a typically nonchalant stroll through Joe Liggins' "I Got a Right to Cry. The rest of the selections are instrumentals, including five Allison originals and standards like "Old Devil Moon and "Stranger in Paradise. Allison proves himself easily up to the task of leading a straight-ahead jazz group, deftly blending bop, blues and a touch of boogie-woogie in a relaxed style reminiscent of Nat King Cole, Teddy Wilson and Count Basie.
Like Cole, Shirley Horn, Diana Krall and many other singers who accompany themselves on piano, Allison's keyboard skills have sometimes been overlooked. This nearly fifty-year-old album won't make anyone forget about Mose the singer, but it may help them appreciate Allison the pianist.
 
 
AllMusic Review by Thom Jurek
Mose Allison's Ramblin' with Mose was released in 1958. Other than the opening track, a stellar read of Joe Liggins' blues "I Got a Right to Cry," this is an entirely instrumental album. Bassist Addison Farmer and drummer Ronnie Free accompany the pianist as he rips through "Stranger in Paradise" from the score of Kismet at a tempo that would make the composer dizzy; his "Old Devil Moon," moves through some Latin changes and even rhythmic figures before bringing the tune back to earth, and his own "Ramble" is a scorching back-country blues jaunt that offers some evidence of Allison's mighty left-hand skills. Allison displays absolutely brilliant instrumental prowess as both an arranger and as an improviser. His unique, often unorthodox interpretations of standards and pop songs set him apart from virtually every one of his peers.

 
 
Лог создания рипа
Exact Audio Copy V1.1 from 23. June 2015
EAC extraction logfile from 12. November 2017, 11:02
Mose Allison / Ramblin With Mose
Used drive  : MATSHITADVD+-RW SW830   Adapter: 1  ID: 0
Read mode               : Secure
Utilize accurate stream : Yes
Defeat audio cache      : Yes
Make use of C2 pointers : No
Read offset correction                      : 6
Overread into Lead-In and Lead-Out          : No
Fill up missing offset samples with silence : Yes
Delete leading and trailing silent blocks   : No
Null samples used in CRC calculations       : Yes
Used interface                              : Native Win32 interface for Win NT & 2000
Gap handling                                : Appended to previous track
Used output format              : User Defined Encoder
Selected bitrate                : 896 kBit/s
Quality                         : High
Add ID3 tag                     : No
Command line compressor         : C:\Program Files (x86)\Exact Audio Copy\Flac\flac.exe
Additional command line options : -8 -V -T "ARTIST=%artist%" -T "TITLE=%title%" -T "ALBUM=%albumtitle%" -T "DATE=%year%" -T "TRACKNUMBER=%tracknr%" -T "TOTALTRACKS=%numtracks%" -T "GENRE=%genre%" -T "ALBUMARTIST=%albumartist%" -T "ALBUM ARTIST=%albumartist%" -T "COMMENT=EAC Secure Mode, Test & Copy, AccurateRip, FLAC -8" %source%
TOC of the extracted CD
     Track |   Start  |  Length  | Start sector | End sector
    ---------------------------------------------------------
        1  |  0:00.00 |  2:51.42 |         0    |    12866
        2  |  2:51.42 |  5:10.63 |     12867    |    36179
        3  |  8:02.30 |  3:30.15 |     36180    |    51944
        4  | 11:32.45 |  4:23.47 |     51945    |    71716
        5  | 15:56.17 |  5:29.65 |     71717    |    96456
        6  | 21:26.07 |  4:33.03 |     96457    |   116934
        7  | 25:59.10 |  3:13.07 |    116935    |   131416
        8  | 29:12.17 |  3:56.28 |    131417    |   149144
        9  | 33:08.45 |  2:20.05 |    149145    |   159649
       10  | 35:28.50 |  3:03.50 |    159650    |   173424
       11  | 38:32.25 |  5:03.17 |    173425    |   196166
       12  | 43:35.42 |  5:52.13 |    196167    |   222579
       13  | 49:27.55 |  3:23.00 |    222580    |   237804
Track  1
     Filename G:\New Rips\Mose Allison - Ramblin With Mose (1958) [FLAC]\01 - I Got A Right To Cry.wav
     Pre-gap length  0:00:02.00
     Peak level 93.5 %
     Extraction speed 4.5 X
     Track quality 100.0 %
     Test CRC D750FC22
     Copy CRC D750FC22
     Accurately ripped (confidence 1)  [A20A0A5F]  (AR v2)
     Copy OK
Track  2
     Filename G:\New Rips\Mose Allison - Ramblin With Mose (1958) [FLAC]\02 - Old Devil Moon.wav
     Pre-gap length  0:00:02.25
     Peak level 95.1 %
     Extraction speed 5.4 X
     Track quality 100.0 %
     Test CRC 15D3E98A
     Copy CRC 15D3E98A
     Accurately ripped (confidence 1)  [B0F34E70]  (AR v2)
     Copy OK
Track  3
     Filename G:\New Rips\Mose Allison - Ramblin With Mose (1958) [FLAC]\03 - The Minstrels.wav
     Pre-gap length  0:00:02.35
     Peak level 95.1 %
     Extraction speed 5.6 X
     Track quality 100.0 %
     Test CRC 823B6E16
     Copy CRC 823B6E16
     Accurately ripped (confidence 1)  [E7150DDD]  (AR v2)
     Copy OK
Track  4
     Filename G:\New Rips\Mose Allison - Ramblin With Mose (1958) [FLAC]\04 - You Belong To Me.wav
     Pre-gap length  0:00:02.03
     Peak level 93.4 %
     Extraction speed 5.1 X
     Track quality 99.9 %
     Test CRC 339EE4D1
     Copy CRC 339EE4D1
     Accurately ripped (confidence 1)  [61D5741C]  (AR v2)
     Copy OK
Track  5
     Filename G:\New Rips\Mose Allison - Ramblin With Mose (1958) [FLAC]\05 - Stranger In Paradise.wav
     Pre-gap length  0:00:02.40
     Peak level 91.9 %
     Extraction speed 6.3 X
     Track quality 100.0 %
     Test CRC 1B3B1234
     Copy CRC 1B3B1234
     Accurately ripped (confidence 1)  [38213E68]  (AR v2)
     Copy OK
Track  6
     Filename G:\New Rips\Mose Allison - Ramblin With Mose (1958) [FLAC]\06 - The Kissin Bug.wav
     Pre-gap length  0:00:03.30
     Peak level 93.2 %
     Extraction speed 6.9 X
     Track quality 100.0 %
     Test CRC A8EC3D38
     Copy CRC A8EC3D38
     Accurately ripped (confidence 1)  [BF730EA9]  (AR v2)
     Copy OK
Track  7
     Filename G:\New Rips\Mose Allison - Ramblin With Mose (1958) [FLAC]\07 - Ramble.wav
     Pre-gap length  0:00:02.55
     Peak level 94.7 %
     Extraction speed 6.7 X
     Track quality 100.0 %
     Test CRC 6497660F
     Copy CRC 6497660F
     Accurately ripped (confidence 1)  [348D340C]  (AR v2)
     Copy OK
Track  8
     Filename G:\New Rips\Mose Allison - Ramblin With Mose (1958) [FLAC]\08 - Saritha.wav
     Pre-gap length  0:00:03.05
     Peak level 92.2 %
     Extraction speed 6.0 X
     Track quality 99.9 %
     Test CRC 31236171
     Copy CRC 31236171
     Accurately ripped (confidence 1)  [3EC1631B]  (AR v2)
     Copy OK
Track  9
     Filename G:\New Rips\Mose Allison - Ramblin With Mose (1958) [FLAC]\09 - Old Man John.wav
     Pre-gap length  0:00:02.65
     Peak level 89.3 %
     Extraction speed 4.9 X
     Track quality 99.9 %
     Test CRC 51D2AA82
     Copy CRC 51D2AA82
     Accurately ripped (confidence 1)  [94970480]  (AR v2)
     Copy OK
Track 10
     Filename G:\New Rips\Mose Allison - Ramblin With Mose (1958) [FLAC]\10 - Ingenue.wav
     Pre-gap length  0:00:03.03
     Peak level 91.6 %
     Extraction speed 7.4 X
     Track quality 100.0 %
     Test CRC 5E3A3A6F
     Copy CRC 5E3A3A6F
     Accurately ripped (confidence 1)  [8EEB4407]  (AR v2)
     Copy OK
Track 11
     Filename G:\New Rips\Mose Allison - Ramblin With Mose (1958) [FLAC]\11 - Old Devil Moon (alt tk).wav
     Pre-gap length  0:00:03.15
     Peak level 94.7 %
     Extraction speed 8.2 X
     Track quality 100.0 %
     Test CRC 19B6B74B
     Copy CRC 19B6B74B
     Accurately ripped (confidence 1)  [45D1140D]  (AR v2)
     Copy OK
Track 12
     Filename G:\New Rips\Mose Allison - Ramblin With Mose (1958) [FLAC]\12 - Stranger In Paradise (alt tk).wav
     Pre-gap length  0:00:03.17
     Peak level 91.4 %
     Extraction speed 8.7 X
     Track quality 100.0 %
     Test CRC FBF03E57
     Copy CRC FBF03E57
     Accurately ripped (confidence 1)  [4F8C19CF]  (AR v2)
     Copy OK
Track 13
     Filename G:\New Rips\Mose Allison - Ramblin With Mose (1958) [FLAC]\13 - Ramble (alt tk).wav
     Pre-gap length  0:00:04.15
     Peak level 94.6 %
     Extraction speed 8.4 X
     Track quality 100.0 %
     Test CRC F6932B9A
     Copy CRC F6932B9A
     Accurately ripped (confidence 1)  [7F16C41C]  (AR v2)
     Copy OK
All tracks accurately ripped
No errors occurred
End of status report
---- CUETools DB Plugin V2.1.6
[CTDB TOCID: bDDjVyA7NvoFYjLMG2i5uQ_g5eY-] found
Submit result: bDDjVyA7NvoFYjLMG2i5uQ_g5eY- has been confirmed
Track | CTDB Status
  1   | (2/2) Accurately ripped
  2   | (2/2) Accurately ripped
  3   | (2/2) Accurately ripped
  4   | (2/2) Accurately ripped
  5   | (2/2) Accurately ripped
  6   | (2/2) Accurately ripped
  7   | (2/2) Accurately ripped
  8   | (2/2) Accurately ripped
  9   | (2/2) Accurately ripped
 10   | (2/2) Accurately ripped
 11   | (2/2) Accurately ripped
 12   | (2/2) Accurately ripped
 13   | (2/2) Accurately ripped
==== Log checksum CBB64D211E5ED80CF1E8E580055D4BBAB7B693163D71502059BC5C7E9E51AB8D ====
 
 
Содержание индексной карты (.CUE)
REM GENRE Jazz
REM DATE 1958
REM DISCID C40C620D
REM COMMENT "ExactAudioCopy v1.1"
PERFORMER "Mose Allison"
TITLE "Ramblin' With Mose"
FILE "01 - I Got A Right To Cry.wav" WAVE
  TRACK 01 AUDIO
    TITLE "I Got A Right To Cry"
    PERFORMER "Mose Allison"
    INDEX 01 00:00:00
  TRACK 02 AUDIO
    TITLE "Old Devil Moon"
    PERFORMER "Mose Allison"
    INDEX 00 02:49:17
FILE "02 - Old Devil Moon.wav" WAVE
    INDEX 01 00:00:00
  TRACK 03 AUDIO
    TITLE "The Minstrels"
    PERFORMER "Mose Allison"
    INDEX 00 05:08:28
FILE "03 - The Minstrels.wav" WAVE
    INDEX 01 00:00:00
  TRACK 04 AUDIO
    TITLE "You Belong To Me"
    PERFORMER "Mose Allison"
    INDEX 00 03:28:12
FILE "04 - You Belong To Me.wav" WAVE
    INDEX 01 00:00:00
  TRACK 05 AUDIO
    TITLE "Stranger In Paradise"
    PERFORMER "Mose Allison"
    INDEX 00 04:21:07
FILE "05 - Stranger In Paradise.wav" WAVE
    INDEX 01 00:00:00
  TRACK 06 AUDIO
    TITLE "The Kissin Bug"
    PERFORMER "Mose Allison"
    INDEX 00 05:26:35
FILE "06 - The Kissin Bug.wav" WAVE
    INDEX 01 00:00:00
  TRACK 07 AUDIO
    TITLE "Ramble"
    PERFORMER "Mose Allison"
    INDEX 00 04:30:23
FILE "07 - Ramble.wav" WAVE
    INDEX 01 00:00:00
  TRACK 08 AUDIO
    TITLE "Saritha"
    PERFORMER "Mose Allison"
    INDEX 00 03:10:02
FILE "08 - Saritha.wav" WAVE
    INDEX 01 00:00:00
  TRACK 09 AUDIO
    TITLE "Old Man John"
    PERFORMER "Mose Allison"
    INDEX 00 03:53:38
FILE "09 - Old Man John.wav" WAVE
    INDEX 01 00:00:00
  TRACK 10 AUDIO
    TITLE "Ingenue"
    PERFORMER "Mose Allison"
    INDEX 00 02:17:02
FILE "10 - Ingenue.wav" WAVE
    INDEX 01 00:00:00
  TRACK 11 AUDIO
    TITLE "Old Devil Moon (alt tk)"
    PERFORMER "Mose Allison"
    INDEX 00 03:00:35
FILE "11 - Old Devil Moon (alt tk).wav" WAVE
    INDEX 01 00:00:00
  TRACK 12 AUDIO
    TITLE "Stranger In Paradise (alt tk)"
    PERFORMER "Mose Allison"
    INDEX 00 05:00:00
FILE "12 - Stranger In Paradise (alt tk).wav" WAVE
    INDEX 01 00:00:00
  TRACK 13 AUDIO
    TITLE "Ramble (alt tk)"
    PERFORMER "Mose Allison"
    INDEX 00 05:47:73
FILE "13 - Ramble (alt tk).wav" WAVE
    INDEX 01 00:00:00
08:34
546
Нет комментариев. Ваш будет первым!