Поиск

(Post-Bop / Contemporary Jazz) 3 Cohens (Anat Cohen, Avishai Cohen, Yuval Cohen, Aaron Goldberg, Omer Avital, Eric Harland) - Braid - 2007, FLAC (tracks+.cue), lossless

(Post-Bop / Contemporary Jazz) 3 Cohens (Anat Cohen, Avishai Cohen, Yuval Cohen, Aaron Goldberg, Omer Avital, Eric Harland) - Braid - 2007, FLAC (tracks+.cue), lossless
Треклист:
3 Cohens - Braid
Жанр: Post-Bop / Contemporary Jazz
Страна-производитель диска: USA
Год издания: 2007
Издатель (лейбл): Anzic Records
Номер по каталогу: ANZ-7001
Аудиокодек: FLAC (*.flac)
Тип рипа: tracks+.cue
Битрейт аудио: lossless
Продолжительность: 01:01:32
Источник (релизер): what.cd / спасибо weisguy
Наличие сканов в содержимом раздачи: нет
Треклист:
1. Navad (The Wanderer) (05:32)
2. Gigi Et Amelie (06:15)
3. Freedom (09:06)
4. Beaches (07:23)
5. U-Valley (03:27)
6. Lies And Gossip (09:13)
7. It Could Happen To You (02:46)
8. Elegy For Eliku (06:06)
9. Tfila (Prayer) (06:22)
10. Shoutin' Low (05:22)
Доп. информация:
Musicians:
ANAT COHEN - tenor saxophone, clarinet (4)
AVISHAI COHEN - trumpet
YUVAL COHEN - soprano saxophone
AARON GOLDBERG - piano
OMER AVITAL - bass, bass guitar
ERIC HARLAND - drums
Recorded by Michael Brorby at Acoustic Recording, Brooklyn, NY, September 2006
© 2007 Anzic Records
3 Cohens - Braid anzicstore.com
3 Cohens - Braid allmusic.com
3 Cohens - Braid allaboutjazz.com
 
... photo ...
 
 
 
... text ...
Rarely in the history of jazz family bands have siblings so successfully created a unified group sound with as distinctive an identity as the Israel-born Cohens. ~ Downbeat
 
 
... review ...
The 3 Cohens went into this, their second album, with the advantage of having known one another all of their lives, which makes for a symbiosis other groups could only dream of. Saxophonist/clarinetist Anat Cohen and her brothers, soprano saxophonist Yuval Cohen and trumpeter Avishai Cohen (not to be confused with the jazz bassist of the same name), were all born in Tel Aviv, took to jazz, and ultimately became part of the New York scene. They're all constantly busy with their own projects (Anat alone released two albums simultaneously as a leader in 2007, the same year that this set was released), and Braid was the first chance they had to record as a family unit in four years. It's a triumphant follow-up. The years of practicing together and paying close attention to one another's individual styles pay off with a cohesiveness and unity of vision that are manifested in every track. Playing with the remarkably nimble pianist Aaron Goldberg, intuitive bassist Omer Avital, and powerhouse drummer Eric Harland, The 3 Cohens lock into a groove, alternating between bop forms and ballads, that allows for both tightly woven ensemble interplay and inspired individual statements. Each of the horn players prefers lyrical, resourceful flights that corral creativity and delight into concise packages, while Goldberg and the rhythm section keep the pace steadily until called upon to make their moves, which they do with grace and skill. The uptempo and giddy 6/8-time opening track, "Navad," begins subtly with the horns sans accompaniment, as if to make a grand statement that the siblings exist in harmony. Drums, bass, and piano kick in and the Cohens begin to assert their independence one by one. The freewheeling airy jam features writerYuval's soaring soprano countering Anat's tenor saxophone and Avishai's trumpet, the three of them saying what's on their minds and then meeting up for a conference every so often. Another quick-paced highlight by Yuval is "Freedom," in which stellar unison horn work gives way to scorching solos first by Avishai and Yuval, then Goldberg. Not to be overlooked is Harland, who wails throughout without overstating himself until given the chance to explode, an opportunity he then takes ample advantage of. Not surprisingly, Middle Eastern flavors find their way into the compositions, but so too do Latin rhythms: Anat's "Tfila" wears a bossa nova coat, as does her "U-Valley" (a tribute toYuval, it would seem), whose easygoing, loping melody takes a distinctively Spanish turn. "Beaches," Avishai's piano-based ballad, finds the Cohen trio (with Anat on clarinet, the only track here on which she plays her other favored instrument) gliding along smoothly in fits and starts - clichéd as it might sound on paper, the waves of sound and the flowing, carefree motion do reflect the eternally complementary, open relationship of ocean, sand, and air. One of Avishai's other numbers, the Latin-esque album-closing "Shoutin' Low," pulls out all the stops, nudging toward outré spaces about two-thirds in, then thinking better of it, deciding it doesn't need to leave the confines of the tune to get across its superb displays of musicianship of composition. The album's only cover is Jimmy Van Heusen and Johnny Burke's "It Could Happen to You," and it's also the only track on which the three blow unaccompanied throughout. Improvisational yet conversational, it's what happens when family members get together to catch up on the latest events in their lives - no one quite knows what the other is about to say but they all listen intently and excitedly, throw out a line or two when they have something to add, chuckle and weep among themselves, and walk that thin line between shutting out the rest of the world from their private chat and welcoming all who'd like to understand their language and become part of the family.
Jeff Tamarkin ~ allmusic.com
 
 
Лог создания рипа
Exact Audio Copy V0.99 prebeta 5 from 4. May 2009
EAC extraction logfile from 11. March 2010, 20:20
3 Cohens / Braid
Used drive  : HL-DT-STDVD-ROM GDR8162B   Adapter: 0  ID: 0
Read mode               : Secure
Utilize accurate stream : Yes
Defeat audio cache      : Yes
Make use of C2 pointers : No
Read offset correction                      : 102
Overread into Lead-In and Lead-Out          : No
Fill up missing offset samples with silence : Yes
Delete leading and trailing silent blocks   : No
Null samples used in CRC calculations       : Yes
Used interface                              : Native Win32 interface for Win NT & 2000
Gap handling                                : Appended to previous track
Used output format              : User Defined Encoder
Selected bitrate                : 192 kBit/s
Quality                         : High
Add ID3 tag                     : No
Command line compressor         : D:\system\Exact Audio Copy\Flac\flac.exe
Additional command line options : -V -8 -T "artist=%a" -T "title=%t" -T "album=%g" -T "date=%y" -T "tracknumber=%n" -T "genre=%m" %s
TOC of the extracted CD
     Track |   Start  |  Length  | Start sector | End sector
    ---------------------------------------------------------
        1  |  0:00.00 |  5:32.51 |         0    |    24950
        2  |  5:32.51 |  6:17.27 |     24951    |    53252
        3  | 11:50.03 |  9:06.54 |     53253    |    94256
        4  | 20:56.57 |  7:24.73 |     94257    |   127629
        5  | 28:21.55 |  3:28.50 |    127630    |   143279
        6  | 31:50.30 |  9:13.21 |    143280    |   184775
        7  | 41:03.51 |  2:47.53 |    184776    |   197353
        8  | 43:51.29 |  6:06.65 |    197354    |   224868
        9  | 49:58.19 |  6:23.24 |    224869    |   253617
       10  | 56:21.43 |  5:22.63 |    253618    |   277830
Track  1
     Filename D:\wave dumps\3 Cohens - Braid - 01 - Navad (The Wanderer).wav
     Pre-gap length  0:00:02.00
     Peak level 97.5 %
     Track quality 100.0 %
     Test CRC 8075B946
     Copy CRC 8075B946
     Accurately ripped (confidence 1)  [4CDF83D4]
     Copy OK
Track  2
     Filename D:\wave dumps\3 Cohens - Braid - 02 - Gigi et Amelie.wav
     Pre-gap length  0:00:00.40
     Peak level 97.6 %
     Track quality 100.0 %
     Test CRC 592B7521
     Copy CRC 592B7521
     Accurately ripped (confidence 1)  [91AE7B57]
     Copy OK
Track  3
     Filename D:\wave dumps\3 Cohens - Braid - 03 - Freedom.wav
     Pre-gap length  0:00:01.81
     Peak level 99.8 %
     Track quality 100.0 %
     Test CRC 80763440
     Copy CRC 80763440
     Accurately ripped (confidence 1)  [852ADEAD]
     Copy OK
Track  4
     Filename D:\wave dumps\3 Cohens - Braid - 04 - Beaches.wav
     Pre-gap length  0:00:00.62
     Peak level 97.8 %
     Track quality 99.9 %
     Test CRC AE2DD236
     Copy CRC AE2DD236
     Accurately ripped (confidence 1)  [739461B5]
     Copy OK
Track  5
     Filename D:\wave dumps\3 Cohens - Braid - 05 - U-Valley.wav
     Pre-gap length  0:00:01.80
     Peak level 97.5 %
     Track quality 100.0 %
     Test CRC 02F36257
     Copy CRC 02F36257
     Accurately ripped (confidence 1)  [0BFAD143]
     Copy OK
Track  6
     Filename D:\wave dumps\3 Cohens - Braid - 06 - Lies and Gossip.wav
     Pre-gap length  0:00:01.29
     Peak level 99.8 %
     Track quality 100.0 %
     Test CRC B50E35A2
     Copy CRC B50E35A2
     Accurately ripped (confidence 1)  [DAB5C91E]
     Copy OK
Track  7
     Filename D:\wave dumps\3 Cohens - Braid - 07 - It Could Happen To you.wav
     Pre-gap length  0:00:00.76
     Peak level 87.5 %
     Track quality 99.8 %
     Test CRC F0AF6EBF
     Copy CRC F0AF6EBF
     Accurately ripped (confidence 1)  [DD78E0AF]
     Copy OK
Track  8
     Filename D:\wave dumps\3 Cohens - Braid - 08 - Elegy for Eliku.wav
     Pre-gap length  0:00:01.65
     Peak level 97.4 %
     Track quality 100.0 %
     Test CRC AD499A67
     Copy CRC AD499A67
     Accurately ripped (confidence 1)  [A4403E40]
     Copy OK
Track  9
     Filename D:\wave dumps\3 Cohens - Braid - 09 - Tfila (Prayer).wav
     Pre-gap length  0:00:01.62
     Peak level 99.9 %
     Track quality 100.0 %
     Test CRC 26829976
     Copy CRC 26829976
     Accurately ripped (confidence 1)  [EA0FB253]
     Copy OK
Track 10
     Filename D:\wave dumps\3 Cohens - Braid - 10 - Shoutin' Low.wav
     Pre-gap length  0:00:01.53
     Peak level 98.4 %
     Track quality 100.0 %
     Test CRC BD14C2F1
     Copy CRC BD14C2F1
     Accurately ripped (confidence 1)  [D8D9CEAF]
     Copy OK
All tracks accurately ripped
No errors occurred
End of status report
 
 
Содержание индексной карты (.CUE)
REM GENRE Jazz
REM DATE 2007
REM DISCID 710E780A
REM COMMENT "ExactAudioCopy v0.99pb5"
PERFORMER "3 Cohens"
TITLE "Braid"
FILE "01 - Navad (The Wanderer).wav" WAVE
  TRACK 01 AUDIO
    TITLE "Navad (The Wanderer)"
    PERFORMER "3 Cohens"
    INDEX 01 00:00:00
  TRACK 02 AUDIO
    TITLE "Gigi et Amelie"
    PERFORMER "3 Cohens"
    INDEX 00 05:32:21
FILE "02 - Gigi et Amelie.wav" WAVE
    INDEX 01 00:00:00
  TRACK 03 AUDIO
    TITLE "Freedom"
    PERFORMER "3 Cohens"
    INDEX 00 06:15:41
FILE "03 - Freedom.wav" WAVE
    INDEX 01 00:00:00
  TRACK 04 AUDIO
    TITLE "Beaches"
    PERFORMER "3 Cohens"
    INDEX 00 09:06:07
FILE "04 - Beaches.wav" WAVE
    INDEX 01 00:00:00
  TRACK 05 AUDIO
    TITLE "U-Valley"
    PERFORMER "3 Cohens"
    INDEX 00 07:23:13
FILE "05 - U-Valley.wav" WAVE
    INDEX 01 00:00:00
  TRACK 06 AUDIO
    TITLE "Lies and Gossip"
    PERFORMER "3 Cohens"
    INDEX 00 03:27:28
FILE "06 - Lies and Gossip.wav" WAVE
    INDEX 01 00:00:00
  TRACK 07 AUDIO
    TITLE "It Could Happen To you"
    PERFORMER "3 Cohens"
    INDEX 00 09:12:39
FILE "07 - It Could Happen To you.wav" WAVE
    INDEX 01 00:00:00
  TRACK 08 AUDIO
    TITLE "Elegy for Eliku"
    PERFORMER "3 Cohens"
    INDEX 00 02:46:04
FILE "08 - Elegy for Eliku.wav" WAVE
    INDEX 01 00:00:00
  TRACK 09 AUDIO
    TITLE "Tfila (Prayer)"
    PERFORMER "3 Cohens"
    INDEX 00 06:05:18
FILE "09 - Tfila (Prayer).wav" WAVE
    INDEX 01 00:00:00
  TRACK 10 AUDIO
    TITLE "Shoutin' Low"
    PERFORMER "3 Cohens"
    INDEX 00 06:21:59
FILE "10 - Shoutin' Low.wav" WAVE
    INDEX 01 00:00:00
 
 
auCDtect Task Manager
-----------------------
DON'T MODIFY THIS FILE
-----------------------
PERFORMER: auCDtect Task Manager, ver. 1.5.1RC6 build 1.5.1.7
Copyright (c) 2008-2010 y-soft. All rights reserved
http://y-soft.org
ANALYZER: auCDtect: CD records authenticity detector, version 0.8.2
Copyright (c) 2004 Oleg Berngardt. All rights reserved.
Copyright (c) 2004 Alexander Djourik. All rights reserved.
FILE: 10 - Shoutin' Low.flac
  Size: 32236239 Hash: D9B8EFDA2B911BAC5600B3AB0BC9B6CC Accuracy: -m0
  Conclusion: CDDA 100%
  Signature: 66A7663E559EEA4B2198B9A01CD0CF117280CC4E
FILE: 09 - Tfila (Prayer).flac
  Size: 35304065 Hash: 19C8130D3B480E4BCD947459E36973D9 Accuracy: -m0
  Conclusion: CDDA 100%
  Signature: B473292F30B54D19F42B7A2BEF6344CED1626412
FILE: 08 - Elegy for Eliku.flac
  Size: 30801309 Hash: 57167E4595360892CA968A61AEAD7712 Accuracy: -m0
  Conclusion: CDDA 100%
  Signature: 2BE3B1002D040D98CD26A2DD2DC8409835DFF228
FILE: 07 - It Could Happen To you.flac
  Size: 11418657 Hash: 8427ABE4D4F73D99C7D5F81AED80822E Accuracy: -m0
  Conclusion: CDDA 100%
  Signature: 3296BF9A3F57FC4F88FEF4AC4C06050513AB6672
FILE: 06 - Lies and Gossip.flac
  Size: 54834880 Hash: 1B9D72A4C4D343188E812318F2739725 Accuracy: -m0
  Conclusion: CDDA 100%
  Signature: 4501A399579A7E5FC80DBB93A538F16308C7F0C9
FILE: 05 - U-Valley.flac
  Size: 19242183 Hash: 6C9BAF70DC8826F1931C226CB19F33B7 Accuracy: -m0
  Conclusion: CDDA 100%
  Signature: 957BA13303FE1211181184D8A1BE90AA7E43965E
FILE: 04 - Beaches.flac
  Size: 37538183 Hash: 3F783E022726859B470F70D604ADBA46 Accuracy: -m0
  Conclusion: CDDA 100%
  Signature: D835063337C8C5F9FF8CD18AFA8DE7DF2AEA4C3D
FILE: 03 - Freedom.flac
  Size: 59637486 Hash: 87474C0D01FF79B7509FB2195F00C04E Accuracy: -m0
  Conclusion: CDDA 100%
  Signature: D909A629064EB1AE5BAA8225ECC9CB8B967FB7D6
FILE: 02 - Gigi et Amelie.flac
  Size: 31803566 Hash: 13450621C9CE87FF83FA4BDAE7CA8359 Accuracy: -m0
  Conclusion: CDDA 100%
  Signature: 5CC339D3B2020A39CEE27D6ED33B78974F5C89CE
FILE: 01 - Navad (The Wanderer).flac
  Size: 31603338 Hash: 96DE7F06A21FA1567FBD387772622770 Accuracy: -m0
  Conclusion: CDDA 100%
  Signature: 7DB68AA43EAD4346CD411BDE3F86459195921598
Download available for power users only.
01:11
518
Нет комментариев. Ваш будет первым!