Поиск

(Cuban Jazz, Post-Bop) Roy Hargrove's Crisol - Habana, w. Chucho Valdes, Gary Bartz, David Sanchez, Frank Lacy - 1997, FLAC (tracks+.cue), lossless

(Cuban Jazz, Post-Bop) Roy Hargrove's Crisol - Habana, w. Chucho Valdes, Gary Bartz, David Sanchez, Frank Lacy - 1997, FLAC (tracks+.cue), lossless
Треклист:
Roy Hargrove's Crisol / Habana
Жанр: Cuban Jazz, Post-Bop
Страна-производитель диска: Germany (PMDC)
Год издания: 1997
Издатель (лейбл): Verve / PolyGram
Номер по каталогу: 537 563-2
Страна: USA
Аудиокодек: FLAC (*.flac)
Тип рипа: tracks+.cue
Битрейт аудио: lossless
Продолжительность: 01:10:45
Источник (релизер): собственный original CD
Наличие сканов в содержимом раздачи: да
Треклист:
01. O My Seh Yeh (Frank Lacy)
02. Una Mas (Kenny Dorham)
03. Dream Traveler (Roy Hargrove)
04. Nusia's Poem (Gary Bartz)
05. Mr. Bruce (Chucho Valdes)
06. Ballad for the Children (Roy Hargrove)
07. Mountaings (Roy Hargrove)
08. Afrodisia (Kenny Dorham)
09. Mambo for Roy (Chucho Valdes)
10. O My Seh Yeh (reprise)
Записано в Италии 5-6 января 1997 года.
 
Состав
Roy Hargrove (trumpet, flugelhorn)
Gary Bartz (soprano & alto saxophone)
David Sanchez (soprano & tenor saxophone)
Frank Lacy (trombone)
Russell Malone (guitar)
Jesus "Chucho" Valdes, John Hicks [#4] (piano)
John Benitez (bass), Jorge Reyes [#5] (electric bass)
Horacio "El Negro" Hernandez, Idris Muhammad [#4] (drums)
Miguel "Anga" Diaz (congas)
Jose Luis "Changuito" Quintana (timbales)
 
Об альбоме
In 1998, the album won Hargrove and the band the Grammy Award for Best Latin Jazz Performance.
AMG review by Richard S. Ginell
At last, this highly touted, heretofore conservative Young Lion makes his move beyond neo-bop toward something new, fresh, and potentially important. He had to go to Havana to find it, starting with some jam sessions with Cuba's Los Van Van dance band in February 1996, which led to the formation of an exciting ten-piece U.S./Cuban band called Crisol. True, this album is a somewhat subdued recorded debut; as heard at the Playboy Jazz Festival in June 1997, Crisol is obviously capable of real thermal combustion. But one can still hear the embryo of its complex fusion of Afro-Cuban rhythm, bop, and progressive jazz impulses on this disc. Hargrove himself still seems dazzled by his new discovery, groping a bit for direction in his own solos. But challenged by the asymmetrical rhythms, he takes more chances and jaggedly strikes some fire. Irakere's Chucho Valdes, an awesome pianist and progressive-minded musician, is one of the anchors of the band, and Russell Malone contributes some of his meatiest, most driven guitar work. The tune that remains most indelible in the memory is trombonist Frank Lacy's "O My Seh Yeh," which opens and closes the CD in neat, bookended fashion. But the most promising track is a smoking arrangement of Kenny Dorham's "Afrodisia," where the heat of this cross-cultural exchange rises well above room temperature. One can only hope that U.S. and Cuban politicos will forego their usual roadblocks and allow these meetings to continue.
 
Лог создания рипа
Exact Audio Copy V1.0 beta 3 from 29. August 2011
EAC extraction logfile from 2. November 2013, 21:51
Roy Hargrove / Roy Hargrove's Crisol Habana
Used drive : MATSHITAUJDA770 DVD/CDRW Adapter: 1 ID: 0
Read mode : Secure
Utilize accurate stream : Yes
Defeat audio cache : Yes
Make use of C2 pointers : No
Read offset correction : 102
Overread into Lead-In and Lead-Out : No
Fill up missing offset samples with silence : Yes
Delete leading and trailing silent blocks : No
Null samples used in CRC calculations : Yes
Used interface : Native Win32 interface for Win NT & 2000
Gap handling : Appended to previous track
Used output format : User Defined Encoder
Selected bitrate : 128 kBit/s
Quality : High
Add ID3 tag : No
Command line compressor : C:\Program Files\Exact Audio Copy\FLAC\FLAC.EXE
Additional command line options : -8 -V -T "ARTIST=%artist%" -T "TITLE=%title%" -T "ALBUM=%albumtitle%" -T "DATE=%year%" -T "TRACKNUMBER=%tracknr%" -T "GENRE=%genre%" -T "COMMENT=%comment%" -T "BAND=%albuminterpret%" -T "ALBUMARTIST=%albuminterpret%" -T "COMPOSER=%composer%" %haslyrics%--tag-from-file=LYRICS="%lyricsfile%"%haslyrics% -T "DISCNUMBER=%cdnumber%" -T "TOTALDISCS=%totalcds%" -T "TOTALTRACKS=%numtracks%" %hascover%--picture="%coverfile%"%hascover% %source% -o %dest%
TOC of the extracted CD
Track | Start | Length | Start sector | End sector
---------------------------------------------------------
1 | 0:00.00 | 10:02.17 | 0 | 45166
2 | 10:02.17 | 8:08.63 | 45167 | 81829
3 | 18:11.05 | 5:25.50 | 81830 | 106254
4 | 23:36.55 | 6:20.62 | 106255 | 134816
5 | 29:57.42 | 5:32.23 | 134817 | 159739
6 | 35:29.65 | 4:54.55 | 159740 | 181844
7 | 40:24.45 | 8:07.67 | 181845 | 218436
8 | 48:32.37 | 4:47.68 | 218437 | 240029
9 | 53:20.30 | 11:01.70 | 240030 | 289674
10 | 64:22.25 | 6:23.00 | 289675 | 318399
Track 1
Filename I:\C.H. Luke\Hargrove, Roy - 1997 - Habana (Verve) [FLAC]\01. O My Seh Yeh.wav
Pre-gap length 0:00:02.00
Peak level 96.1 %
Extraction speed 1.7 X
Track quality 99.9 %
Test CRC 1D64F536
Copy CRC 1D64F536
Accurately ripped (confidence 28) [069F6CD9] (AR v2)
Copy OK
Track 2
Filename I:\C.H. Luke\Hargrove, Roy - 1997 - Habana (Verve) [FLAC]\02. Una Mas.wav
Pre-gap length 0:00:01.30
Peak level 95.8 %
Extraction speed 3.3 X
Track quality 100.0 %
Test CRC 014F2669
Copy CRC 014F2669
Accurately ripped (confidence 28) [DF72CA15] (AR v2)
Copy OK
Track 3
Filename I:\C.H. Luke\Hargrove, Roy - 1997 - Habana (Verve) [FLAC]\03. Dream Traveler.wav
Pre-gap length 0:00:01.60
Peak level 95.8 %
Extraction speed 3.2 X
Track quality 99.9 %
Test CRC 2FE5AE80
Copy CRC 2FE5AE80
Accurately ripped (confidence 28) [6397E8E2] (AR v2)
Copy OK
Track 4
Filename I:\C.H. Luke\Hargrove, Roy - 1997 - Habana (Verve) [FLAC]\04. Nusia's Poem.wav
Pre-gap length 0:00:02.08
Peak level 94.2 %
Extraction speed 2.0 X
Track quality 100.0 %
Test CRC 06A8374E
Copy CRC 06A8374E
Accurately ripped (confidence 28) [31A5C1C2] (AR v2)
Copy OK
Track 5
Filename I:\C.H. Luke\Hargrove, Roy - 1997 - Habana (Verve) [FLAC]\05. Mr. Bruce.wav
Pre-gap length 0:00:00.05
Peak level 95.2 %
Extraction speed 3.1 X
Track quality 99.9 %
Test CRC 7210AC21
Copy CRC 7210AC21
Accurately ripped (confidence 28) [F6663AF2] (AR v2)
Copy OK
Track 6
Filename I:\C.H. Luke\Hargrove, Roy - 1997 - Habana (Verve) [FLAC]\06. Ballad For The Children.wav
Pre-gap length 0:00:01.70
Peak level 92.9 %
Extraction speed 3.4 X
Track quality 100.0 %
Test CRC B9EF365E
Copy CRC B9EF365E
Accurately ripped (confidence 28) [D409BAB4] (AR v2)
Copy OK
Track 7
Filename I:\C.H. Luke\Hargrove, Roy - 1997 - Habana (Verve) [FLAC]\07. Mountaings.wav
Pre-gap length 0:00:02.20
Peak level 95.8 %
Extraction speed 4.5 X
Track quality 100.0 %
Test CRC 73C26D31
Copy CRC 73C26D31
Accurately ripped (confidence 28) [ED62065F] (AR v2)
Copy OK
Track 8
Filename I:\C.H. Luke\Hargrove, Roy - 1997 - Habana (Verve) [FLAC]\08. Afrodisia.wav
Pre-gap length 0:00:00.42
Peak level 95.8 %
Extraction speed 4.4 X
Track quality 100.0 %
Test CRC 8F45D761
Copy CRC 8F45D761
Accurately ripped (confidence 28) [5A9B6A60] (AR v2)
Copy OK
Track 9
Filename I:\C.H. Luke\Hargrove, Roy - 1997 - Habana (Verve) [FLAC]\09. Mambo For Roy.wav
Pre-gap length 0:00:00.55
Peak level 96.1 %
Extraction speed 3.5 X
Track quality 100.0 %
Test CRC D451BB26
Copy CRC D451BB26
Accurately ripped (confidence 27) [5CCDCD62] (AR v2)
Copy OK
Track 10
Filename I:\C.H. Luke\Hargrove, Roy - 1997 - Habana (Verve) [FLAC]\10. O My Seh Yeh (reprise).wav
Pre-gap length 0:00:00.53
Peak level 96.0 %
Extraction speed 4.6 X
Track quality 100.0 %
Test CRC 15A88191
Copy CRC 15A88191
Accurately ripped (confidence 26) [6157DDA7] (AR v2)
Copy OK
All tracks accurately ripped
No errors occurred
End of status report
---- CUETools DB Plugin V2.1.3
[CTDB TOCID: 4qz1Lnl3N1nz4QSflLMTgH3_a5U-] found, Submit result: 4qz1Lnl3N1nz4QSflLMTgH3_a5U- has been confirmed
[d2de1ea1] (51/54) Accurately ripped
[b480fa7f] (01/54) No match
[e9571c6a] (01/54) No match
[f902b3e1] (01/54) No match
==== Log checksum 70DBB48923DD290B5D8F1ED5FC553E49EE14CF855821085ED758D5ABD3AD6325 ====
 
Содержание индексной карты (.CUE)
REM GENRE Jazz
REM DATE 1997
REM DISCID 8210950A
REM COMMENT "ExactAudioCopy v1.0b3"
PERFORMER "Roy Hargrove"
TITLE "Roy Hargrove's Crisol Habana"
FILE "01. O My Seh Yeh.wav" WAVE
TRACK 01 AUDIO
TITLE "O My Seh Yeh"
PERFORMER "Roy Hargrove"
INDEX 01 00:00:00
TRACK 02 AUDIO
TITLE "Una Mas"
PERFORMER "Roy Hargrove"
INDEX 00 10:00:62
FILE "02. Una Mas.wav" WAVE
INDEX 01 00:00:00
TRACK 03 AUDIO
TITLE "Dream Traveler"
PERFORMER "Roy Hargrove"
INDEX 00 08:07:03
FILE "03. Dream Traveler.wav" WAVE
INDEX 01 00:00:00
TRACK 04 AUDIO
TITLE "Nusia's Poem"
PERFORMER "Roy Hargrove"
INDEX 00 05:23:42
FILE "04. Nusia's Poem.wav" WAVE
INDEX 01 00:00:00
TRACK 05 AUDIO
TITLE "Mr. Bruce"
PERFORMER "Roy Hargrove"
INDEX 00 06:20:57
FILE "05. Mr. Bruce.wav" WAVE
INDEX 01 00:00:00
TRACK 06 AUDIO
TITLE "Ballad For The Children"
PERFORMER "Roy Hargrove"
INDEX 00 05:30:28
FILE "06. Ballad For The Children.wav" WAVE
INDEX 01 00:00:00
TRACK 07 AUDIO
TITLE "Mountaings"
PERFORMER "Roy Hargrove"
INDEX 00 04:52:35
FILE "07. Mountaings.wav" WAVE
INDEX 01 00:00:00
TRACK 08 AUDIO
TITLE "Afrodisia"
PERFORMER "Roy Hargrove"
INDEX 00 08:07:25
FILE "08. Afrodisia.wav" WAVE
INDEX 01 00:00:00
TRACK 09 AUDIO
TITLE "Mambo For Roy"
PERFORMER "Roy Hargrove"
INDEX 00 04:47:13
FILE "09. Mambo For Roy.wav" WAVE
INDEX 01 00:00:00
TRACK 10 AUDIO
TITLE "O My Seh Yeh (reprise)"
PERFORMER "Roy Hargrove"
INDEX 00 11:01:17
FILE "10. O My Seh Yeh (reprise).wav" WAVE
INDEX 01 00:00:00
Приватный:
Нет (DHT включён)
Размер:
395.44 Мб (414,652,390 байт) » файлов: 18
Участники:
0 раздают, 0 качают (0 участников всего)
Внешние участники:
2 раздают, 1 качают (3 участников всего) [ Обновить ]
For power users only: no seeders - write to support@pro-jazz.com. Для power user: нет сидеров - пишите на support@pro-jazz.com.
02:11
129
Нет комментариев. Ваш будет первым!