Поиск

(Post-Bop) [CD] Alan Pasqua (Dave Holland, Paul Motian, Gary Bartz, Michael Brecker, Randy Brecker) - Dedications - 1996, FLAC (tracks+.cue), lossless

(Post-Bop) [CD] Alan Pasqua (Dave Holland, Paul Motian, Gary Bartz, Michael Brecker, Randy Brecker) - Dedications - 1996, FLAC (tracks+.cue), lossless
Треклист:
Alan Pasqua / Dedications
Жанр: Post-Bop
Носитель: CD
Страна-производитель диска (релиза): US
Год издания: 1996
Издатель (лейбл): Postcards
Номер по каталогу: post 1012
Аудиокодек: FLAC (*.flac)
Тип рипа: tracks+.cue
Битрейт аудио: lossless
Продолжительность: 58:23
Источник (релизер): cd
Наличие сканов в содержимом раздачи: нет
Треклист:
1. Homage 5:49
2. San Michele 9:28
3. Mr. Softee 4:58
4. The Emergence 5:59
5. Ellingtonia 10:38
6. Taiowa 5:54
7. Dedicated To You 4:14
8. Sha' La Ko' 5:55
9. Grace 5:26
 
Лог создания рипа
Exact Audio Copy V1.0 beta 3 from 29. August 2011
EAC extraction logfile from 6. April 2015, 16:00
Alan Pasqua / Dedications
Used drive : ASUS DRW-24F1ST a Adapter: 0 ID: 0
Read mode : Secure
Utilize accurate stream : Yes
Defeat audio cache : Yes
Make use of C2 pointers : No
Read offset correction : 6
Overread into Lead-In and Lead-Out : No
Fill up missing offset samples with silence : Yes
Delete leading and trailing silent blocks : No
Null samples used in CRC calculations : Yes
Used interface : Native Win32 interface for Win NT & 2000
Gap handling : Appended to previous track
Used output format : User Defined Encoder
Selected bitrate : 320 kBit/s
Quality : High
Add ID3 tag : No
Command line compressor : D:\Programs\Exact Audio Copy\Flac\flac.exe
Additional command line options : -V -8 -T "Genre=%genre%" -T "Artist=%artist%" -T "Title=%title%" -T "Album=%albumtitle%" -T "Date=%year%" -T "Tracknumber=%tracknr%" -T "Comment=%comment%" %source%
TOC of the extracted CD
Track | Start | Length | Start sector | End sector
---------------------------------------------------------
1 | 0:00.00 | 5:48.72 | 0 | 26171
2 | 5:48.72 | 9:28.40 | 26172 | 68811
3 | 15:17.37 | 4:57.73 | 68812 | 91159
4 | 20:15.35 | 5:59.17 | 91160 | 118101
5 | 26:14.52 | 10:37.70 | 118102 | 165946
6 | 36:52.47 | 5:54.33 | 165947 | 192529
7 | 42:47.05 | 4:14.10 | 192530 | 211589
8 | 47:01.15 | 5:54.50 | 211590 | 238189
9 | 52:55.65 | 5:27.72 | 238190 | 262786
Track 1
Filename D:\EAC\01 Homage.wav
Pre-gap length 0:00:02.00
Peak level 97.1 %
Extraction speed 4.6 X
Track quality 100.0 %
Test CRC B006D89C
Copy CRC B006D89C
Copy OK
Track 2
Filename D:\EAC\02 San Michele.wav
Pre-gap length 0:00:02.03
Peak level 85.6 %
Extraction speed 5.6 X
Track quality 100.0 %
Test CRC A08BEF26
Copy CRC A08BEF26
Copy OK
Track 3
Filename D:\EAC\03 Mr Softee.wav
Pre-gap length 0:00:04.10
Peak level 98.3 %
Extraction speed 6.0 X
Track quality 100.0 %
Test CRC 6C1F594C
Copy CRC 6C1F594C
Copy OK
Track 4
Filename D:\EAC\04 The Emergence.wav
Pre-gap length 0:00:02.50
Peak level 97.0 %
Extraction speed 6.0 X
Track quality 99.9 %
Test CRC C480DD4B
Copy CRC C480DD4B
Copy OK
Track 5
Filename D:\EAC\05 Ellingtonia.wav
Pre-gap length 0:00:03.47
Peak level 97.3 %
Extraction speed 7.4 X
Track quality 100.0 %
Test CRC CD8B7633
Copy CRC CD8B7633
Copy OK
Track 6
Filename D:\EAC\06 Taiowa.wav
Pre-gap length 0:00:03.50
Peak level 98.5 %
Extraction speed 7.6 X
Track quality 100.0 %
Test CRC E93AE5F3
Copy CRC E93AE5F3
Copy OK
Track 7
Filename D:\EAC\07 Dedicated to You.wav
Pre-gap length 0:00:02.38
Peak level 90.5 %
Extraction speed 7.6 X
Track quality 100.0 %
Test CRC 3397DA42
Copy CRC 3397DA42
Copy OK
Track 8
Filename D:\EAC\08 Sha' la ko'.wav
Pre-gap length 0:00:02.10
Peak level 97.9 %
Extraction speed 8.2 X
Track quality 100.0 %
Test CRC A52839BB
Copy CRC A52839BB
Copy OK
Track 9
Filename D:\EAC\09 Grace.wav
Pre-gap length 0:00:03.23
Peak level 56.2 %
Extraction speed 8.4 X
Track quality 100.0 %
Test CRC B7A9B2AE
Copy CRC B7A9B2AE
Copy OK
No errors occurred
End of status report
==== Log checksum 247F9A589F5D07641796D22E7303FBFD78CBABB3D48C1A4EFD5A64DBCF419947 ====
 
Содержание индексной карты (.CUE)
REM GENRE Jazz
REM DATE 1996
REM DISCID 7B0DAF09
REM COMMENT "ExactAudioCopy v1.0b3"
CATALOG 0000000000000
PERFORMER "Alan Pasqua"
TITLE "Dedications"
FILE "01 Homage.wav" WAVE
TRACK 01 AUDIO
TITLE "Homage"
PERFORMER "Alan Pasqua"
INDEX 01 00:00:00
TRACK 02 AUDIO
TITLE "San Michele"
PERFORMER "Alan Pasqua"
INDEX 00 05:46:69
FILE "02 San Michele.wav" WAVE
INDEX 01 00:00:00
TRACK 03 AUDIO
TITLE "Mr Softee"
PERFORMER "Alan Pasqua"
INDEX 00 09:24:30
FILE "03 Mr Softee.wav" WAVE
INDEX 01 00:00:00
TRACK 04 AUDIO
TITLE "The Emergence"
PERFORMER "Alan Pasqua"
INDEX 00 04:55:23
FILE "04 The Emergence.wav" WAVE
INDEX 01 00:00:00
TRACK 05 AUDIO
TITLE "Ellingtonia"
PERFORMER "Alan Pasqua"
INDEX 00 05:55:45
FILE "05 Ellingtonia.wav" WAVE
INDEX 01 00:00:00
TRACK 06 AUDIO
TITLE "Taiowa"
PERFORMER "Alan Pasqua"
INDEX 00 10:34:20
FILE "06 Taiowa.wav" WAVE
INDEX 01 00:00:00
TRACK 07 AUDIO
TITLE "Dedicated to You"
PERFORMER "Alan Pasqua"
INDEX 00 05:51:70
FILE "07 Dedicated to You.wav" WAVE
INDEX 01 00:00:00
TRACK 08 AUDIO
TITLE "Sha' la ko'"
PERFORMER "Alan Pasqua"
INDEX 00 04:12:00
FILE "08 Sha' la ko'.wav" WAVE
INDEX 01 00:00:00
TRACK 09 AUDIO
TITLE "Grace"
PERFORMER "Alan Pasqua"
INDEX 00 05:51:27
FILE "09 Grace.wav" WAVE
INDEX 01 00:00:00
Доп. информация: Recorded on September 12 and 13, 1995, at Sound on Sound, New York City.
 
Об альбоме (сборнике)
Dedications is pianist-composer Alan Pasqua's second release for the label which followed the critically acclaimed Milagro. On Dedications, Pasqua reaps the benefits of an all-star supporting cast which includes the mighty rhythm section of drummer Paul Motian and bassist Dave Holland. Pasqua, along with the talented horns of Randy Brecker, Michael Brecker and Gary Bartz, offers a generous mix whether performing in piano trio mode or utilizing the proficient skills of these top-flight soloists on selected tracks.
Pasqua demonstrates simply stated elegance behind the keys which is evident from the onset with the composition titled, "Homage." A mid-tempo swing featuring a lyrically charged alto sax solo by Gary Bartz along with Randy Brecker's clear toned, adept phrasing. Here and throughout, Pasqua also shines as a composer who possesses laudable melodic and harmonic tendencies within the framework of his enticing arrangements. It is also quite apparent that Pasqua felt comfortable working with Holland and Motian as he effortlessly comps with brief, often supple left-handed block chords. Pasqua's sublime, gorgeous phrasing glows on the somber ballad, "San Michele" as Michael Brecker's compassionate, dream-like soprano sax work provides warm overtones to this beautiful composition. On "Mr. Softee," Pasqua embarks on the piano trio course with a rhythm section that is fully cognizant of piano trio art, as their combined experience and resumes are well documented in these and other areas. "Ellingtonia" captures Duke's spirit as Randy Brecker utilizes some plunger action on his trumpet, which is certainly a throw back to the old big band era...Perhaps a lost art these days? Pasqua's lush voicings are prevalent on "Dedicated To You" as he once again engages the piano trio format. The closer, "Grace" is a lovely soul searching solo vehicle for Pasqua and is somewhat reminiscent of the Bill Evans school where every note speaks encyclopedic volumes.
A far cry from his days with the late Tony Williams and the fusion version of his now historic "Lifetime" band. Here, Alan Pasqua charms us with sincere, melodically memorable compositions, as the stellar ensemble work is just an added bonus. Dedications is artistically expressive and makes for an enticing listening experience.
 
Состав
Bass – Dave Holland
Drums – Paul Motian
Piano – Alan Pasqua
Saxophone [Alto] – Gary Bartz (tracks: 1, 5, 8)
Saxophone [Soprano, Tenor] – Michael Brecker (tracks: 2, 4)
Trumpet – Randy Brecker (tracks: 1, 4, 5, 8)
Приватный:
Нет (DHT включён)
Размер:
353.09 Мб (370,242,031 байт) » файлов: 13
Участники:
0 раздают, 0 качают (0 участников всего)
Внешние участники:
2 раздают, 1 качают (3 участников всего) [ Обновить ]
No seeders - write personal message to M0p94ok. Нет сидеров - пишите в личку M0p94ok.
21:27
162
Нет комментариев. Ваш будет первым!