Поиск

(Hard Bop, Mainstream Jazz) [CD] Milt Jackson and Wes Montgomery - Bags meets Wes! (1961) - 2008 {Keepnews Collection}, FLAC (tracks+.cue), lossless

(Hard Bop, Mainstream Jazz) [CD] Milt Jackson and Wes Montgomery - Bags meets Wes! (1961) - 2008 {Keepnews Collection}, FLAC (tracks+.cue), lossless
Треклист:
Milt Jackson and Wes Montgomery - Bags meets Wes! (1961) Носитель: CD
Жанр: Hard Bop, Mainstream Jazz
Год издания: 2008
Издатель (лейбл): Concord/Riverside
Номер по каталогу: 0888072305021
Аудиокодек: FLAC (*.flac)
Тип рипа: tracks+.cue
Битрейт аудио: lossless
Продолжительность: 61:07
Rip by ruskaval
Наличие сканов в содержимом раздачи: да
Треклист:
01. S. K. J. (5:17)
02. Stablemates (Take 4) (5:49)
03. Stairway To The Stars (Take 3) (3:40)
04. Bluz Roz (4:48)
05. Sam Sack (6:07)
06. Jingles (Take 9) (6:57)
07. Delilah (Take 4) (6:13)
08. Stablemates (Take 2) (bonus track) (5:18)
09. Stairway To The Stars (Take 2) (bonus track) (3:47)
10. Jingles (Take 8) (bonus track) (6:53)
11. Delilah (Take 3) (bonus track) (6:18)
Personnel:
Milt Jackson - vib
Wes Montgomery - g
Wynton Kelly - p
Sam Jones - b
Philly Joe Jones - d
Rec.: Plaza Sound Studios, New York City, NY, December 18 & 19, 1961.
 
 
Лог создания рипа
Exact Audio Copy V1.0 beta 4 from 7. December 2014
EAC extraction logfile from 7. April 2015, 19:00
Milt Jackson and Wes Montgomery / Bags Meets Wes!
Used drive : TSSTcorpCDDVDW SE-208DB Adapter: 1 ID: 1
Read mode : Secure
Utilize accurate stream : Yes
Defeat audio cache : Yes
Make use of C2 pointers : No
Read offset correction : 6
Overread into Lead-In and Lead-Out : No
Fill up missing offset samples with silence : Yes
Delete leading and trailing silent blocks : No
Null samples used in CRC calculations : Yes
Used interface : Native Win32 interface for Win NT & 2000
Gap handling : Appended to previous track
Used output format : User Defined Encoder
Selected bitrate : 1024 kBit/s
Quality : High
Add ID3 tag : No
Command line compressor : C:\Program Files (x86)\FLAC Frontend\tools\flac.exe
Additional command line options : -8 -V -T "ARTIST=%artist%" -T "TITLE=%title%" -T "ALBUM=%albumtitle%" -T "DATE=%year%" -T "TRACKNUMBER=%tracknr%" -T "TOTALTRACKS=%numtracks%" -T "GENRE=%genre%" -T "ALBUMARTIST=%albumartist%" -T "ALBUM ARTIST=%albumartist%" -T "COMMENT=EAC Secure Mode, Test & Copy, AccurateRip, FLAC -8" %source%
TOC of the extracted CD
Track | Start | Length | Start sector | End sector
---------------------------------------------------------
1 | 0:00.00 | 5:17.31 | 0 | 23805
2 | 5:17.31 | 5:48.41 | 23806 | 49946
3 | 11:05.72 | 3:40.09 | 49947 | 66455
4 | 14:46.06 | 4:48.05 | 66456 | 88060
5 | 19:34.11 | 6:06.58 | 88061 | 115568
6 | 25:40.69 | 6:56.44 | 115569 | 146812
7 | 32:37.38 | 6:13.09 | 146813 | 174796
8 | 38:50.47 | 5:17.41 | 174797 | 198612
9 | 44:08.13 | 3:47.04 | 198613 | 215641
10 | 47:55.17 | 6:53.20 | 215642 | 246636
11 | 54:48.37 | 6:18.09 | 246637 | 274995
Track 1
Filename D:\_EAC\Milt Jackson and Wes Montgomery - Bags meets Wes! (1961) [FLAC] {2008 Riverside}\01 - S. K. J..wav
Pre-gap length 0:00:02.00
Peak level 68.3 %
Extraction speed 1.0 X
Track quality 99.9 %
Test CRC 1C4672D5
Copy CRC 1C4672D5
Accurately ripped (confidence 24) [A548A1BA] (AR v2)
Copy OK
Track 2
Filename D:\_EAC\Milt Jackson and Wes Montgomery - Bags meets Wes! (1961) [FLAC] {2008 Riverside}\02 - Stablemates (Take 4).wav
Peak level 82.6 %
Extraction speed 1.3 X
Track quality 100.0 %
Test CRC D1EB227B
Copy CRC D1EB227B
Accurately ripped (confidence 24) [A10A6C83] (AR v2)
Copy OK
Track 3
Filename D:\_EAC\Milt Jackson and Wes Montgomery - Bags meets Wes! (1961) [FLAC] {2008 Riverside}\03 - Stairway To The Stars (Take 3).wav
Peak level 72.9 %
Extraction speed 1.1 X
Track quality 99.9 %
Test CRC 256372F1
Copy CRC 256372F1
Accurately ripped (confidence 24) [1FC00A81] (AR v2)
Copy OK
Track 4
Filename D:\_EAC\Milt Jackson and Wes Montgomery - Bags meets Wes! (1961) [FLAC] {2008 Riverside}\04 - Bluz Roz.wav
Peak level 92.9 %
Extraction speed 1.4 X
Track quality 100.0 %
Test CRC 9779BCAD
Copy CRC 9779BCAD
Accurately ripped (confidence 24) [EB011769] (AR v2)
Copy OK
Track 5
Filename D:\_EAC\Milt Jackson and Wes Montgomery - Bags meets Wes! (1961) [FLAC] {2008 Riverside}\05 - Sam Sack.wav
Peak level 70.5 %
Extraction speed 1.6 X
Track quality 100.0 %
Test CRC 81CB3853
Copy CRC 81CB3853
Accurately ripped (confidence 24) [02CADE81] (AR v2)
Copy OK
Track 6
Filename D:\_EAC\Milt Jackson and Wes Montgomery - Bags meets Wes! (1961) [FLAC] {2008 Riverside}\06 - Jingles (Take 9).wav
Peak level 90.5 %
Extraction speed 1.7 X
Track quality 100.0 %
Test CRC 981B5C35
Copy CRC 981B5C35
Accurately ripped (confidence 24) [4F47735C] (AR v2)
Copy OK
Track 7
Filename D:\_EAC\Milt Jackson and Wes Montgomery - Bags meets Wes! (1961) [FLAC] {2008 Riverside}\07 - Delilah (Take 4).wav
Peak level 88.1 %
Extraction speed 1.6 X
Track quality 99.9 %
Test CRC EABDD9BA
Copy CRC EABDD9BA
Accurately ripped (confidence 24) [A5DA5E43] (AR v2)
Copy OK
Track 8
Filename D:\_EAC\Milt Jackson and Wes Montgomery - Bags meets Wes! (1961) [FLAC] {2008 Riverside}\08 - Stablemates (Take 2) (bonus track).wav
Peak level 80.9 %
Extraction speed 1.8 X
Track quality 100.0 %
Test CRC F2A02D99
Copy CRC F2A02D99
Accurately ripped (confidence 24) [E8FD356D] (AR v2)
Copy OK
Track 9
Filename D:\_EAC\Milt Jackson and Wes Montgomery - Bags meets Wes! (1961) [FLAC] {2008 Riverside}\09 - Stairway To The Stars (Take 2) (bonus track).wav
Peak level 64.2 %
Extraction speed 1.5 X
Track quality 99.9 %
Test CRC A159ABA6
Copy CRC A159ABA6
Accurately ripped (confidence 24) [AED10387] (AR v2)
Copy OK
Track 10
Filename D:\_EAC\Milt Jackson and Wes Montgomery - Bags meets Wes! (1961) [FLAC] {2008 Riverside}\10 - Jingles (Take 8) (bonus track).wav
Peak level 100.0 %
Extraction speed 1.9 X
Track quality 100.0 %
Test CRC 25C4E9CF
Copy CRC 25C4E9CF
Accurately ripped (confidence 24) [8DED935D] (AR v2)
Copy OK
Track 11
Filename D:\_EAC\Milt Jackson and Wes Montgomery - Bags meets Wes! (1961) [FLAC] {2008 Riverside}\11 - Delilah (Take 3) (bonus track).wav
Peak level 95.0 %
Extraction speed 2.0 X
Track quality 100.0 %
Test CRC 876D8FBA
Copy CRC 876D8FBA
Accurately ripped (confidence 24) [FF463A7F] (AR v2)
Copy OK
All tracks accurately ripped
No errors occurred
End of status report
==== Log checksum 6DB8989C3945BB6ADA9810D68C68AAD1F4535BF202C62A7563EDFDA43A119D3A ====
 
Содержание индексной карты (.CUE)
REM GENRE Jazz
REM DATE 1961
REM DISCID AA0E520B
REM COMMENT "ExactAudioCopy v1.0b4"
PERFORMER "Milt Jackson and Wes Montgomery"
TITLE "Bags Meets Wes!"
FILE "01 - S. K. J..wav" WAVE
TRACK 01 AUDIO
TITLE "S. K. J."
PERFORMER "Milt Jackson and Wes Montgomery"
INDEX 01 00:00:00
FILE "02 - Stablemates (Take 4).wav" WAVE
TRACK 02 AUDIO
TITLE "Stablemates (Take 4)"
PERFORMER "Milt Jackson and Wes Montgomery"
INDEX 01 00:00:00
FILE "03 - Stairway To The Stars (Take 3).wav" WAVE
TRACK 03 AUDIO
TITLE "Stairway To The Stars (Take 3)"
PERFORMER "Milt Jackson and Wes Montgomery"
INDEX 01 00:00:00
FILE "04 - Bluz Roz.wav" WAVE
TRACK 04 AUDIO
TITLE "Bluz Roz"
PERFORMER "Milt Jackson and Wes Montgomery"
INDEX 01 00:00:00
FILE "05 - Sam Sack.wav" WAVE
TRACK 05 AUDIO
TITLE "Sam Sack"
PERFORMER "Milt Jackson and Wes Montgomery"
INDEX 01 00:00:00
FILE "06 - Jingles (Take 9).wav" WAVE
TRACK 06 AUDIO
TITLE "Jingles (Take 9)"
PERFORMER "Milt Jackson and Wes Montgomery"
INDEX 01 00:00:00
FILE "07 - Delilah (Take 4).wav" WAVE
TRACK 07 AUDIO
TITLE "Delilah (Take 4)"
PERFORMER "Milt Jackson and Wes Montgomery"
INDEX 01 00:00:00
FILE "08 - Stablemates (Take 2) (bonus track).wav" WAVE
TRACK 08 AUDIO
TITLE "Stablemates (Take 2) (bonus track)"
PERFORMER "Milt Jackson and Wes Montgomery"
INDEX 01 00:00:00
FILE "09 - Stairway To The Stars (Take 2) (bonus track).wav" WAVE
TRACK 09 AUDIO
TITLE "Stairway To The Stars (Take 2) (bonus track)"
PERFORMER "Milt Jackson and Wes Montgomery"
INDEX 01 00:00:00
FILE "10 - Jingles (Take 8) (bonus track).wav" WAVE
TRACK 10 AUDIO
TITLE "Jingles (Take 8) (bonus track)"
PERFORMER "Milt Jackson and Wes Montgomery"
INDEX 01 00:00:00
FILE "11 - Delilah (Take 3) (bonus track).wav" WAVE
TRACK 11 AUDIO
TITLE "Delilah (Take 3) (bonus track)"
PERFORMER "Milt Jackson and Wes Montgomery"
INDEX 01 00:00:00
Приватный:
Нет (DHT включён)
Размер:
614.64 Мб (644,497,661 байт) » файлов: 30
Участники:
0 раздают, 0 качают (0 участников всего)
Внешние участники:
3 раздают, 1 качают (4 участников всего) [ Обновить ]
For power users only: no seeders - write to support@pro-jazz.com. Для power user: нет сидеров - пишите на support@pro-jazz.com.
21:29
96
Нет комментариев. Ваш будет первым!