Поиск

(Post-Bop) Cal Tjader — Jazz At The Blackhawk (1957) — 1991, FLAC (tracks+.cue), lossless

Треклист:
Cal Tjader — Jazz At The Blackhawk (1957)
Жанр: Post-Bop
Год издания диска: 1991
Издатель (лейбл): Original Jazz Classics
Аудиокодек: FLAC (*.flac)
Тип рипа: tracks+.cue
Битрейт аудио: lossless
Продолжительность: 44:04
Источник: web
Сканов:
Треклист:
01. Bill B. (6:56)
02. Land's End (4:06)
03. I'll Remember April (6:15)
04. Blues In The Night (4:43)
05. Thinking Of You, MJQ (3:44)
06. I've Never Been In Love Before (3:39)
07. Two For Blues Suite (5:16)
08. When The Sun Comes Out (4:56)
09. Lover, Come Back To Me (4:29)
Personnel:
Cal Tjader - vib
Vince Guaraldi - p
Gene Wright - b
Al Torre - d
Rec.: live at the Blackhawk, San Francisco, CA, January 20, 1957.
 
 
Лог создания рипа
Exact Audio Copy V0.99 prebeta 5 from 4. May 2009
EAC extraction logfile from 24. April 2011, 20:48
Cal Tjader / Jazz at the Blackhawk
Used drive : Optiarc DVD RW AD-7240S Adapter: 3 ID: 1
Read mode : Secure
Utilize accurate stream : Yes
Defeat audio cache : Yes
Make use of C2 pointers : No
Read offset correction : 48
Overread into Lead-In and Lead-Out : No
Fill up missing offset samples with silence : Yes
Delete leading and trailing silent blocks : No
Null samples used in CRC calculations : Yes
Used interface : Native Win32 interface for Win NT & 2000
Gap handling : Appended to previous track
Used output format : User Defined Encoder
Selected bitrate : 128 kBit/s
Quality : High
Add ID3 tag : No
Command line compressor : C:\Program Files (x86)\Exact Audio Copy\Flac\flac.exe
Additional command line options : -V -8 -T "artist=%a" -T "title=%t" -T "album=%g" -T "date=%y" -T "tracknumber=%n" -T "genre=%m" %s
TOC of the extracted CD
Track | Start | Length | Start sector | End sector
---------------------------------------------------------
1 | 0:00.00 | 6:56.10 | 0 | 31209
2 | 6:56.10 | 4:06.35 | 31210 | 49694
3 | 11:02.45 | 6:15.03 | 49695 | 77822
4 | 17:17.48 | 4:42.50 | 77823 | 99022
5 | 22:00.23 | 3:43.50 | 99023 | 115797
6 | 25:43.73 | 3:39.20 | 115798 | 132242
7 | 29:23.18 | 5:15.42 | 132243 | 155909
8 | 34:38.60 | 4:55.48 | 155910 | 178082
9 | 39:34.33 | 4:29.10 | 178083 | 198267
Track 1
Filename C:\RIPS\Cal Tjader - Jazz at the Blackhawk\01 - Cal Tjader - Bill B..wav
Pre-gap length 0:00:02.00
Peak level 72.1 %
Track quality 100.0 %
Test CRC 0AD1827F
Copy CRC 0AD1827F
Track not present in AccurateRip database
Copy OK
Track 2
Filename C:\RIPS\Cal Tjader - Jazz at the Blackhawk\02 - Cal Tjader - Land's End.wav
Pre-gap length 0:00:04.25
Peak level 73.3 %
Track quality 100.0 %
Test CRC 54160F43
Copy CRC 54160F43
Track not present in AccurateRip database
Copy OK
Track 3
Filename C:\RIPS\Cal Tjader - Jazz at the Blackhawk\03 - Cal Tjader - I'll Remember April.wav
Pre-gap length 0:00:02.15
Peak level 97.2 %
Track quality 100.0 %
Test CRC FC48AAFE
Copy CRC FC48AAFE
Track not present in AccurateRip database
Copy OK
Track 4
Filename C:\RIPS\Cal Tjader - Jazz at the Blackhawk\04 - Cal Tjader - Blues in the Night.wav
Pre-gap length 0:00:03.15
Peak level 85.1 %
Track quality 100.0 %
Test CRC 9D306887
Copy CRC 9D306887
Track not present in AccurateRip database
Copy OK
Track 5
Filename C:\RIPS\Cal Tjader - Jazz at the Blackhawk\05 - Cal Tjader - Thinking of You, MJQ.wav
Pre-gap length 0:00:01.65
Peak level 72.9 %
Track quality 100.0 %
Test CRC 2841C114
Copy CRC 2841C114
Track not present in AccurateRip database
Copy OK
Track 6
Filename C:\RIPS\Cal Tjader - Jazz at the Blackhawk\06 - Cal Tjader - I've Never Been in Love Before.wav
Pre-gap length 0:00:02.58
Peak level 73.9 %
Track quality 100.0 %
Test CRC 85CEBB55
Copy CRC 85CEBB55
Track not present in AccurateRip database
Copy OK
Track 7
Filename C:\RIPS\Cal Tjader - Jazz at the Blackhawk\07 - Cal Tjader - Two for Blues Suite.wav
Pre-gap length 0:00:02.55
Peak level 66.9 %
Track quality 100.0 %
Test CRC 30D2BFE1
Copy CRC 30D2BFE1
Track not present in AccurateRip database
Copy OK
Track 8
Filename C:\RIPS\Cal Tjader - Jazz at the Blackhawk\08 - Cal Tjader - When the Sun Comes Out.wav
Pre-gap length 0:00:02.62
Peak level 72.7 %
Track quality 100.0 %
Test CRC E7682D1E
Copy CRC E7682D1E
Track not present in AccurateRip database
Copy OK
Track 9
Filename C:\RIPS\Cal Tjader - Jazz at the Blackhawk\09 - Cal Tjader - Lover, Come Back to Me.wav
Pre-gap length 0:00:02.30
Peak level 80.3 %
Track quality 100.0 %
Test CRC 6B03561B
Copy CRC 6B03561B
Track not present in AccurateRip database
Copy OK
None of the tracks are present in the AccurateRip database
No errors occurred
End of status report
 
Содержание индексной карты (.CUE)
REM GENRE Jazz
REM DATE 1957
REM DISCID 720A5309
REM COMMENT "ExactAudioCopy v0.99pb5"
PERFORMER "Cal Tjader"
TITLE "Jazz at the Blackhawk"
FILE "01. Bill B..flac" WAVE
TRACK 01 AUDIO
TITLE "Bill B."
PERFORMER "Cal Tjader"
INDEX 01 00:00:00
TRACK 02 AUDIO
TITLE "Land's End"
PERFORMER "Cal Tjader"
INDEX 00 06:51:60
FILE "02. Land's End.flac" WAVE
INDEX 01 00:00:00
TRACK 03 AUDIO
TITLE "I'll Remember April"
PERFORMER "Cal Tjader"
INDEX 00 04:04:20
FILE "03. I'll Remember April.flac" WAVE
INDEX 01 00:00:00
TRACK 04 AUDIO
TITLE "Blues In The Night"
PERFORMER "Cal Tjader"
INDEX 00 06:11:63
FILE "04. Blues In The Night.flac" WAVE
INDEX 01 00:00:00
TRACK 05 AUDIO
TITLE "Thinking Of You, MJQ"
PERFORMER "Cal Tjader"
INDEX 00 04:40:60
FILE "05. Thinking Of You, MJQ.flac" WAVE
INDEX 01 00:00:00
TRACK 06 AUDIO
TITLE "I've Never Been In Love Before"
PERFORMER "Cal Tjader"
INDEX 00 03:40:67
FILE "06. I've Never Been In Love Before.flac" WAVE
INDEX 01 00:00:00
TRACK 07 AUDIO
TITLE "Two For Blues Suite"
PERFORMER "Cal Tjader"
INDEX 00 03:36:40
FILE "07. Two For Blues Suite.flac" WAVE
INDEX 01 00:00:00
TRACK 08 AUDIO
TITLE "When The Sun Comes Out"
PERFORMER "Cal Tjader"
INDEX 00 05:12:55
FILE "08. When The Sun Comes Out.flac" WAVE
INDEX 01 00:00:00
TRACK 09 AUDIO
TITLE "Lover, Come Back To Me"
PERFORMER "Cal Tjader"
INDEX 00 04:53:18
FILE "09. Lover, Come Back To Me.flac" WAVE
INDEX 01 00:00:00
 
Лог проверки качества
AUDIOCHECKER v2.0 beta (build 457) - by Dester - opdester@freemail.hu
~~~~~~~~~~~~~~~~~~~~~~~~~~~~~~~~~~
-=== DO NOT EDIT THIS FILE! ===-
Path: ...\1957. Cal Tjader - Jazz At The Blackhawk
1 -=- 01. Bill B..flac -=- CDDA (99%)
2 -=- 02. Land's End.flac -=- CDDA (100%)
3 -=- 03. I'll Remember April.flac -=- CDDA (100%)
4 -=- 04. Blues In The Night.flac -=- CDDA (99%)
5 -=- 05. Thinking Of You, MJQ.flac -=- CDDA (100%)
6 -=- 06. I've Never Been In Love Before.flac -=- CDDA (100%)
7 -=- 07. Two For Blues Suite.flac -=- CDDA (100%)
8 -=- 08. When The Sun Comes Out.flac -=- CDDA (99%)
9 -=- 09. Lover, Come Back To Me.flac -=- CDDA (100%)
Summary 99,67% CDDA
183059348
23:37
278
Нет комментариев. Ваш будет первым!