Поиск

(Latin jazz, post-bop) Rebecca Cline and Hilary Noble - Enclave Diaspora - 2008, APE (image+.cue), lossless

Треклист:
Rebecca Cline and Hilary Noble / Enclave Diaspora
Жанр: Latin jazz, post-bop
Год издания диска: 2008
Издатель (лейбл): Enclave Jazz
Аудиокодек: APE (*.ape)
Тип рипа: image+.cue
Битрейт аудио: lossless
Продолжительность: 00:54:31
Источник (релизер): (dreadbull)
Наличие сканов в содержимом раздачи: да
Треклист:
01. Crossroads [04:00]
02. Rue de Buci [05:17]
03. Iya Modupue [07:37]
04. A-Frayed [04:32]
05. Improvisaciones sobre Yemaya [02:58]
06. Chorinho pra Iemannja [01:40]
07. Ocean Mother [04:24]
08. Nameless [04:42]
09. Moab [04:47]
10. Mars Bars [08:17]
11. Blue Cross [06:11]
 
Лог создания рипа
EAC extraction logfile from 18. May 2011, 17:24 for CD
Rebecca Cline & Hilary Noble / Enclave Diaspora
Used drive : ASUS DRW-22B2L Adapter: 0 ID: 1
Read mode : Secure with NO C2, accurate stream, disable cache
Read offset correction : 6
Overread into Lead-In and Lead-Out : No
Used output format : Internal WAV Routines
44.100 Hz; 16 Bit; Stereo
Other options :
Fill up missing offset samples with silence : Yes
Delete leading and trailing silent blocks : No
Installed external ASPI interface
Range status and errors
Selected range
Filename D:\Donkey Files\Hilary Noble, Rebecca Cline - Enclave Diaspora (2008) [eac-ape-scans] byDrBull\CDImage.wav
Peak level 99.6 %
Range quality 100.0 %
CRC 287F1ECA
Copy OK
No errors occured
End of status report
 
Содержание индексной карты (.CUE)
PERFORMER "Rebecca Cline & Hilary Noble"
TITLE "Enclave Diaspora"
FILE "CDImage.wav" WAVE
TRACK 01 AUDIO
TITLE "Crossroads "
PERFORMER "Rebecca Cline & Hilary Noble"
INDEX 01 00:00:00
TRACK 02 AUDIO
TITLE "Rue de Buci "
PERFORMER "Rebecca Cline & Hilary Noble"
INDEX 01 04:00:29
TRACK 03 AUDIO
TITLE "Iya Modupue"
PERFORMER "Rebecca Cline & Hilary Noble"
INDEX 01 09:17:72
TRACK 04 AUDIO
TITLE "A-Frayed "
PERFORMER "Rebecca Cline & Hilary Noble"
INDEX 01 16:55:49
TRACK 05 AUDIO
TITLE "Improvisaciones sobre Yemaya "
PERFORMER "Rebecca Cline & Hilary Noble"
INDEX 01 21:28:37
TRACK 06 AUDIO
TITLE "Chorinho pra Iemannja"
PERFORMER "Rebecca Cline & Hilary Noble"
INDEX 01 24:27:18
TRACK 07 AUDIO
TITLE "Ocean Mother "
PERFORMER "Rebecca Cline & Hilary Noble"
INDEX 01 26:08:02
TRACK 08 AUDIO
TITLE "Nameless "
PERFORMER "Rebecca Cline & Hilary Noble"
INDEX 01 30:32:45
TRACK 09 AUDIO
TITLE "Moab "
PERFORMER "Rebecca Cline & Hilary Noble"
INDEX 01 35:14:57
TRACK 10 AUDIO
TITLE "Mars Bars"
PERFORMER "Rebecca Cline & Hilary Noble"
INDEX 01 40:02:31
TRACK 11 AUDIO
TITLE "Blue Cross"
PERFORMER "Rebecca Cline & Hilary Noble"
INDEX 01 48:19:38
 
Об альбоме (сборнике)
by Michael G. Nastos
Their follow-up recording to the 2005 Zoho label release Enclave has pianist Rebecca Cline and saxophonist Hilary Noble expanding on their Latin jazz concept, as a diaspora indicates. The use of the word "enclave" wields a double entendre, the meaning of the term as a collective, encased and insular whole, while in the implied sense it is within the clave beat of Afro-Cuban music. This recording uses both wholly descarga and samba rhythms, while in other instances extends the flavor of what Eddie Palmieri calls Afro-Caribbean music with the jagged edged spirit of improvisation based post-bop and modern neo-jazz. Rebecca Cline is an incredibly gifted pianist as heard on the original Enclave CD, and here she's doin' it again. Whether in clever, energetic, or wildly untamed motions, it is clear that … » Read more
 
Состав
Hilary Noble - tenor sax, flute, congas, djembe, cajon, cowbell;
Rebecca Cline - acoustic grand piano, Fender Rhodes, bombo, clave, cowbell;
Fernando Huergo - electric bass;
Steve Langone - drums, chocalho, pandeiro
23:38
271
Нет комментариев. Ваш будет первым!