Вы используете незарегистрированную версию компонента "Вкладки"!

Поиск

(Post-Bop, Avant-Garde Jazz) Paul Motian - On Broadway, Vol. 3 - 1991, FLAC (tracks+.cue), lossless

(Post-Bop, Avant-Garde Jazz) Paul Motian - On Broadway, Vol. 3 - 1991, FLAC (tracks+.cue), lossless
Треклист:
Paul Motian - On Broadway, Vol. 3
Жанр: Post-Bop, Avant-Garde Jazz
Страна-производитель диска: Германия
Год издания: 1992
Издатель (лейбл): JMT
Номер по каталогу: 849157-2
Страна: США
Аудиокодек: FLAC (*.flac)
Тип рипа: tracks+.cue
Битрейт аудио: lossless
Продолжительность: 56:39
Источник (релизер): david62442 (what)
Наличие сканов в содержимом раздачи: да (back)
Треклист:
01. How Deep Is the Ocean? (Berlin) - 6:54
02. I Wish I Knew (Warren-Gordon) - 6:46
03. Just One of Those Things (Porter) - 6:17
04. Crazy She Calls Me (Sigman-Russell) - 4:19
05. Tico Tico (Abreu) - 2:49
06. Weaver of Dreams (Young-Elliott) - 7:00
07. The Way You Look Tonight (Kern-Fields) - 5:22
08. Handful of Stars (Shapiro-Lawrence) - 6:47
09. Pennies from Heaven (Johnston-Burke) - 5:25
10. Skylark (Mercer-Carmichael) - 5:00
Состав:
Paul Motian - drums
Lee Konitz - soprano saxophone, alto saxophone
Joe Lovano - tenor saxophone
Bill Frisell - guitar
Charlie Haden - bass
Recorded at Sigma Sound, New York in August 1991.
 
Лог создания рипа
X Lossless Decoder version 20100518 (120.3)
XLD extraction logfile from 2010-05-25 20:58:14 +0200
Paul Motian / On Broadway Vol.3
Used drive : PIONEER DVD-RW DVRTS08 (revision Q81D)
Use cdparanoia mode : YES (CDParanoia III 10.2 engine)
Disable audio cache : OK for the drive with cache less than 2750KB
Make use of C2 pointers : NO
Read offset correction : 48
Max retry count : 100
TOC of the extracted CD
Track | Start | Length | Start sector | End sector
---------------------------------------------------------
1 | 00:00:33 | 06:53:25 | 33 | 31032
2 | 06:53:58 | 06:45:42 | 31033 | 61449
3 | 13:39:25 | 06:16:55 | 61450 | 89704
4 | 19:56:05 | 04:19:03 | 89705 | 109132
5 | 24:15:08 | 02:49:15 | 109133 | 121822
6 | 27:04:23 | 07:00:17 | 121823 | 153339
7 | 34:04:40 | 05:22:03 | 153340 | 177492
8 | 39:26:43 | 06:46:70 | 177493 | 208012
9 | 46:13:38 | 05:24:40 | 208013 | 232352
10 | 51:38:03 | 05:00:12 | 232353 | 254864
List of alternate offset correction values
# | Absolute | Relative | Confidence
------------------------------------------
1 | -578 | -626 | 2
Track 01
Filename : /Users/DAVID/Desktop/01 - How Deep Is The Ocean.flac
Pre-gap length : 00:02:33
CRC32 hash (test run) : 5736B313
CRC32 hash : 5736B313
CRC32 hash (skip zero) : B0F461EE
AccurateRip signature : CDA6F73D
->Accurately ripped! (confidence 3)
Statistics
Read error : 0
Skipped (treated as error) : 0
Edge jitter error (maybe fixed) : 0
Atom jitter error (maybe fixed) : 0
Drift error (maybe fixed) : 0
Dropped bytes error (maybe fixed) : 0
Duplicated bytes error (maybe fixed) : 0
Inconsistency in error sectors : 0
Track 02
Filename : /Users/DAVID/Desktop/02 - I Wish I Knew.flac
Pre-gap length : 00:04:18
CRC32 hash (test run) : 59666607
CRC32 hash : 59666607
CRC32 hash (skip zero) : 6B9ED6BF
AccurateRip signature : 698E4541
->Accurately ripped! (confidence 3)
Statistics
Read error : 0
Skipped (treated as error) : 0
Edge jitter error (maybe fixed) : 0
Atom jitter error (maybe fixed) : 0
Drift error (maybe fixed) : 0
Dropped bytes error (maybe fixed) : 0
Duplicated bytes error (maybe fixed) : 0
Inconsistency in error sectors : 0
Track 03
Filename : /Users/DAVID/Desktop/03 - Just One Of Those Things.flac
Pre-gap length : 00:05:00
CRC32 hash (test run) : 885A6B5D
CRC32 hash : 885A6B5D
CRC32 hash (skip zero) : 5C82C20B
AccurateRip signature : DB13E2C0
->Accurately ripped! (confidence 3)
Statistics
Read error : 0
Skipped (treated as error) : 0
Edge jitter error (maybe fixed) : 1
Atom jitter error (maybe fixed) : 1
Drift error (maybe fixed) : 0
Dropped bytes error (maybe fixed) : 0
Duplicated bytes error (maybe fixed) : 0
Inconsistency in error sectors : 0
Track 04
Filename : /Users/DAVID/Desktop/04 - Crazy She Calls Me.flac
Pre-gap length : 00:03:62
CRC32 hash (test run) : DBB1938B
CRC32 hash : DBB1938B
CRC32 hash (skip zero) : 20326778
AccurateRip signature : 0DF6DCAA
->Accurately ripped! (confidence 3)
Statistics
Read error : 0
Skipped (treated as error) : 0
Edge jitter error (maybe fixed) : 0
Atom jitter error (maybe fixed) : 0
Drift error (maybe fixed) : 0
Dropped bytes error (maybe fixed) : 0
Duplicated bytes error (maybe fixed) : 0
Inconsistency in error sectors : 0
Track 05
Filename : /Users/DAVID/Desktop/05 - Tico Tico.flac
Pre-gap length : 00:04:00
CRC32 hash (test run) : D7D9DB7C
CRC32 hash : D7D9DB7C
CRC32 hash (skip zero) : 60F9D518
AccurateRip signature : DC6110F3
->Accurately ripped! (confidence 3)
Statistics
Read error : 0
Skipped (treated as error) : 0
Edge jitter error (maybe fixed) : 0
Atom jitter error (maybe fixed) : 0
Drift error (maybe fixed) : 0
Dropped bytes error (maybe fixed) : 0
Duplicated bytes error (maybe fixed) : 0
Inconsistency in error sectors : 0
Track 06
Filename : /Users/DAVID/Desktop/06 - Weaver Of Dreams.flac
Pre-gap length : 00:04:35
CRC32 hash (test run) : 379E8918
CRC32 hash : 379E8918
CRC32 hash (skip zero) : F82C112E
AccurateRip signature : 2F936CA9
->Accurately ripped! (confidence 3)
Statistics
Read error : 0
Skipped (treated as error) : 0
Edge jitter error (maybe fixed) : 0
Atom jitter error (maybe fixed) : 0
Drift error (maybe fixed) : 0
Dropped bytes error (maybe fixed) : 0
Duplicated bytes error (maybe fixed) : 0
Inconsistency in error sectors : 0
Track 07
Filename : /Users/DAVID/Desktop/07 - The Way You Look Tonight.flac
Pre-gap length : 00:04:00
CRC32 hash (test run) : 36549763
CRC32 hash : 36549763
CRC32 hash (skip zero) : E3F69566
AccurateRip signature : ABF8EF93
->Accurately ripped! (confidence 3)
Statistics
Read error : 0
Skipped (treated as error) : 0
Edge jitter error (maybe fixed) : 0
Atom jitter error (maybe fixed) : 0
Drift error (maybe fixed) : 0
Dropped bytes error (maybe fixed) : 0
Duplicated bytes error (maybe fixed) : 0
Inconsistency in error sectors : 0
Track 08
Filename : /Users/DAVID/Desktop/08 - Handful Of Stars.flac
Pre-gap length : 00:04:00
CRC32 hash (test run) : C247BB40
CRC32 hash : C247BB40
CRC32 hash (skip zero) : 4907990B
AccurateRip signature : 6E6924A8
->Accurately ripped! (confidence 3)
Statistics
Read error : 0
Skipped (treated as error) : 0
Edge jitter error (maybe fixed) : 0
Atom jitter error (maybe fixed) : 0
Drift error (maybe fixed) : 0
Dropped bytes error (maybe fixed) : 0
Duplicated bytes error (maybe fixed) : 0
Inconsistency in error sectors : 0
Track 09
Filename : /Users/DAVID/Desktop/09 - Pennies From Heaven.flac
Pre-gap length : 00:04:43
CRC32 hash (test run) : 6D4A38BF
CRC32 hash : 6D4A38BF
CRC32 hash (skip zero) : F27CF384
AccurateRip signature : EACD641A
->Accurately ripped! (confidence 3)
Statistics
Read error : 0
Skipped (treated as error) : 0
Edge jitter error (maybe fixed) : 0
Atom jitter error (maybe fixed) : 0
Drift error (maybe fixed) : 0
Dropped bytes error (maybe fixed) : 0
Duplicated bytes error (maybe fixed) : 0
Inconsistency in error sectors : 0
Track 10
Filename : /Users/DAVID/Desktop/10 - Skylark.flac
Pre-gap length : 00:04:30
CRC32 hash (test run) : C2B67EC0
CRC32 hash : C2B67EC0
CRC32 hash (skip zero) : DA21F5B9
AccurateRip signature : 48377831
->Accurately ripped! (confidence 3)
Statistics
Read error : 0
Skipped (treated as error) : 0
Edge jitter error (maybe fixed) : 0
Atom jitter error (maybe fixed) : 0
Drift error (maybe fixed) : 0
Dropped bytes error (maybe fixed) : 0
Duplicated bytes error (maybe fixed) : 0
Inconsistency in error sectors : 0
No errors occurred
End of status report
 
Содержание индексной карты (.CUE)
TITLE "On Broadway, Vol. 3"
PERFORMER "Paul Motian"
CATALOG 0042284915724
REM GENRE "Jazz"
REM DATE 1991
REM DISCNUMBER 1
REM TOTALDISCS 1
REM DISCID 820D460A
FILE "01 - How Deep Is the Ocean.wav" WAVE
TRACK 01 AUDIO
TITLE "How Deep Is the Ocean"
PERFORMER "Paul Motian"
INDEX 00 00:00:00
INDEX 01 00:00:33
TRACK 02 AUDIO
TITLE "I Wish I Knew"
PERFORMER "Paul Motian"
INDEX 00 06:49:07
FILE "02 - I Wish I Knew.wav" WAVE
INDEX 01 00:00:00
TRACK 03 AUDIO
TITLE "Just One of Those Things"
PERFORMER "Paul Motian"
INDEX 00 06:40:42
FILE "03 - Just One of Those Things.wav" WAVE
INDEX 01 00:00:00
TRACK 04 AUDIO
TITLE "Crazy She Calls Me"
PERFORMER "Paul Motian"
INDEX 00 06:12:68
FILE "04 - Crazy She Calls Me.wav" WAVE
INDEX 01 00:00:00
TRACK 05 AUDIO
TITLE "Tico Tico"
PERFORMER "Paul Motian"
INDEX 00 04:15:03
FILE "05 - Tico Tico.wav" WAVE
INDEX 01 00:00:00
TRACK 06 AUDIO
TITLE "Weaver of Dreams"
PERFORMER "Paul Motian"
INDEX 00 02:44:55
FILE "06 - Weaver of Dreams.wav" WAVE
INDEX 01 00:00:00
TRACK 07 AUDIO
TITLE "The Way You Look Tonight"
PERFORMER "Paul Motian"
INDEX 00 06:56:17
FILE "07 - The Way You Look Tonight.wav" WAVE
INDEX 01 00:00:00
TRACK 08 AUDIO
TITLE "Handful of Stars"
PERFORMER "Paul Motian"
INDEX 00 05:18:03
FILE "08 - Handful of Stars.wav" WAVE
INDEX 01 00:00:00
TRACK 09 AUDIO
TITLE "Pennies from Heaven"
PERFORMER "Paul Motian"
INDEX 00 06:42:27
FILE "09 - Pennies from Heaven.wav" WAVE
INDEX 01 00:00:00
TRACK 10 AUDIO
TITLE "Skylark"
PERFORMER "Paul Motian"
INDEX 00 05:20:10
FILE "10 - Skylark.wav" WAVE
INDEX 01 00:00:00
 
Отчет CUETools
[CUETools log; Date: 07.03.2013 0:37:10; Version: 2.1.4]
Pregap length 00:00:33.
[CTDB TOCID: WrhqrAD0q0xMye8YEwUxu1Wcf6E-] found.
Track | CTDB Status
1 | (2/2) Accurately ripped
2 | (2/2) Accurately ripped
3 | (2/2) Accurately ripped
4 | (2/2) Accurately ripped
5 | (2/2) Accurately ripped
6 | (2/2) Accurately ripped
7 | (2/2) Accurately ripped
8 | (2/2) Accurately ripped
9 | (2/2) Accurately ripped
10 | (2/2) Accurately ripped
[AccurateRip ID: 0015f609-00ad8f16-820d460a] found.
Track [ CRC | V2 ] Status
01 [cda6f73d|cf1de697] (4+0/9) Accurately ripped
02 [698e4541|884a2647] (4+0/9) Accurately ripped
03 [db13e2c0|4adc3032] (4+0/9) Accurately ripped
04 [0df6dcaa|88465a14] (4+0/9) Accurately ripped
05 [dc6110f3|228d8e5c] (4+0/9) Accurately ripped
06 [2f936ca9|f96f443e] (4+0/9) Accurately ripped
07 [abf8ef93|b57c9063] (4+0/9) Accurately ripped
08 [6e6924a8|0cf4fd2e] (4+0/9) Accurately ripped
09 [eacd641a|57111d9c] (4+0/9) Accurately ripped
10 [48377831|8902dd54] (4+0/9) Accurately ripped
Offsetted by -626:
01 [3d5adc5b] (5/9) Accurately ripped
02 [82767a81] (5/9) Accurately ripped
03 [17b9146a] (5/9) Accurately ripped
04 [f697b242] (5/9) Accurately ripped
05 [4e879df1] (5/9) Accurately ripped
06 [fe81bb75] (5/9) Accurately ripped
07 [e5e54765] (5/9) Accurately ripped
08 [97f5e4a4] (5/9) Accurately ripped
09 [52bad1d6] (5/9) Accurately ripped
10 [f3f2918f] (5/9) Accurately ripped
Offsetted by -697:
01 [4657f44c] (0/9) No match (V2 was not tested)
02 [9399cfe1] (0/9) No match (V2 was not tested)
03 [4c673715] (0/9) No match (V2 was not tested)
04 [fe930976] (0/9) No match (V2 was not tested)
05 [138089f2] (0/9) No match (V2 was not tested)
06 [ddf3750f] (0/9) No match (V2 was not tested)
07 [891764fc] (0/9) No match (V2 was not tested)
08 [076869a6] (0/9) No match (V2 was not tested)
09 [1aa1cff8] (0/9) No match (V2 was not tested)
10 [d7fcbf60] (0/9) No match (V2 was not tested)
Track Peak [ CRC32 ] [W/O NULL]
-- 100,0 [26C6944F] [FF8D2267]
01 76,3 [5736B313] [B0F461EE]
02 60,5 [59666607] [6B9ED6BF]
03 100,0 [885A6B5D] [5C82C20B]
04 56,0 [DBB1938B] [20326778]
05 100,0 [D7D9DB7C] [60F9D518]
06 65,4 [379E8918] [F82C112E]
07 84,1 [36549763] [E3F69566]
08 70,6 [C247BB40] [4907990B]
09 82,9 [6D4A38BF] [F27CF384]
10 55,9 [C2B67EC0] [DA21F5B9]
 
Review by Scott Yanow
Drummer Paul Motian leads an intriguing all-star quintet on this gem of a disc. Motian and his regular trio of the time (with tenor saxophonist Joe Lovano and guitarist Bill Frisell) are joined by bassist Charlie Haden and altoist Lee Konitz (who doubles on soprano) for unusual versions of ten standards. Frisell's atmospheric and spacy guitar playing sets the mood for such tunes as "How Deep Is the Ocean," "Just One of Those Things," "Tico Tico," and "The Way You Look Tonight." While Konitz adds a straight-ahead element to the music, his playing is fairly explorative and he interacts well with Lovano. The performances are logical yet unpredictable, like the very best jazz. Highly recommended.
Any questions -> support@pro-jazz.com. По всем вопросам пишите -> support@pro-jazz.com
17:21
155
Нет комментариев. Ваш будет первым!