Вы используете незарегистрированную версию компонента "Вкладки"!

Поиск

(Post-Bop, Avant-Garde Jazz) [CD] Sam Rivers - A New Conception (1966) - 2014 {Japan SHM-CD Blue Note 24-192 Remaster}, FLAC (tracks+.cue), lossless

(Post-Bop, Avant-Garde Jazz) [CD] Sam Rivers - A New Conception (1966) - 2014 {Japan SHM-CD Blue Note 24-192 Remaster}, FLAC (tracks+.cue), lossless
Треклист:
Sam Rivers - A New Conception (1966) Жанр: Post-Bop, Avant-Garde Jazz
Носитель: CD
Страна-производитель диска: Japan
Год издания: 2014
Издатель (лейбл): Universal Japan/Blue Note
Номер по каталогу: TYCJ-81055
Аудиокодек: FLAC (*.flac)
Тип рипа: tracks+.cue
Битрейт аудио: lossless
Продолжительность: 44:13
Rip by ruskaval
Наличие сканов в содержимом раздачи: да
Треклист:
01. When I Fall In Love (5:51)
02. I'll Never Smile Again (5:58)
03. Detour Ahead (5:11)
04. That's All (5:40)
05. What A Difference A Day Makes (6:20)
06. Temptation (7:40)
07. Secret Love (7:32)
Personnel:
Sam Rivers – tenor saxophone, soprano saxophone, flute
Hal Galper – piano
Herbie Lewis – bass
Steve Ellington – drums
 
 
Лог создания рипа
Exact Audio Copy V1.1 from 23. June 2015
EAC extraction logfile from 9. November 2015, 0:00
Sam Rivers / A New Conception
Used drive : TSSTcorpCDDVDW SE-208DB Adapter: 7 ID: 0
Read mode : Secure
Utilize accurate stream : Yes
Defeat audio cache : Yes
Make use of C2 pointers : No
Read offset correction : 6
Overread into Lead-In and Lead-Out : No
Fill up missing offset samples with silence : Yes
Delete leading and trailing silent blocks : No
Null samples used in CRC calculations : Yes
Used interface : Installed external ASPI interface
Gap handling : Appended to previous track
Used output format : User Defined Encoder
Selected bitrate : 1024 kBit/s
Quality : High
Add ID3 tag : No
Command line compressor : C:\Program Files (x86)\FLAC Frontend\tools\flac.exe
Additional command line options : -8 -V -T "ARTIST=%artist%" -T "TITLE=%title%" -T "ALBUM=%albumtitle%" -T "DATE=%year%" -T "TRACKNUMBER=%tracknr%" -T "TOTALTRACKS=%numtracks%" -T "GENRE=%genre%" -T "ALBUMARTIST=%albumartist%" -T "ALBUM ARTIST=%albumartist%" -T "COMMENT=EAC Secure Mode, Test & Copy, AccurateRip, FLAC -8" %source%
TOC of the extracted CD
Track | Start | Length | Start sector | End sector
---------------------------------------------------------
1 | 0:00.00 | 5:51.36 | 0 | 26360
2 | 5:51.36 | 5:58.10 | 26361 | 53220
3 | 11:49.46 | 5:11.07 | 53221 | 76552
4 | 17:00.53 | 5:40.11 | 76553 | 102063
5 | 22:40.64 | 6:20.31 | 102064 | 130594
6 | 29:01.20 | 7:39.59 | 130595 | 165078
7 | 36:41.04 | 7:32.03 | 165079 | 198981
Track 1
Filename M:\_EAC\Sam Rivers - A New Conception (1966) [FLAC] {2014 Japan SHM-CD Blue Note 24-192 Remaster}\01 - When I Fall In Love.wav
Pre-gap length 0:00:02.00
Peak level 96.9 %
Extraction speed 2.7 X
Track quality 100.0 %
Test CRC 5A250D1A
Copy CRC 5A250D1A
Accurately ripped (confidence 7) [C70E5E03] (AR v2)
Copy OK
Track 2
Filename M:\_EAC\Sam Rivers - A New Conception (1966) [FLAC] {2014 Japan SHM-CD Blue Note 24-192 Remaster}\02 - I'll Never Smile Again.wav
Pre-gap length 0:00:02.23
Peak level 97.2 %
Extraction speed 3.2 X
Track quality 100.0 %
Test CRC 16B2FDE1
Copy CRC 16B2FDE1
Accurately ripped (confidence 7) [D736AF08] (AR v2)
Copy OK
Track 3
Filename M:\_EAC\Sam Rivers - A New Conception (1966) [FLAC] {2014 Japan SHM-CD Blue Note 24-192 Remaster}\03 - Detour Ahead.wav
Pre-gap length 0:00:02.23
Peak level 97.5 %
Extraction speed 3.0 X
Track quality 99.9 %
Test CRC FA27D74C
Copy CRC FA27D74C
Accurately ripped (confidence 7) [D75EA879] (AR v2)
Copy OK
Track 4
Filename M:\_EAC\Sam Rivers - A New Conception (1966) [FLAC] {2014 Japan SHM-CD Blue Note 24-192 Remaster}\04 - That's All.wav
Pre-gap length 0:00:02.23
Peak level 97.1 %
Extraction speed 3.8 X
Track quality 100.0 %
Test CRC B42FD03E
Copy CRC B42FD03E
Accurately ripped (confidence 7) [042A024C] (AR v2)
Copy OK
Track 5
Filename M:\_EAC\Sam Rivers - A New Conception (1966) [FLAC] {2014 Japan SHM-CD Blue Note 24-192 Remaster}\05 - What A Difference A Day Makes.wav
Pre-gap length 0:00:02.23
Peak level 97.7 %
Extraction speed 4.1 X
Track quality 100.0 %
Test CRC B07D7B17
Copy CRC B07D7B17
Accurately ripped (confidence 7) [D7E347FD] (AR v2)
Copy OK
Track 6
Filename M:\_EAC\Sam Rivers - A New Conception (1966) [FLAC] {2014 Japan SHM-CD Blue Note 24-192 Remaster}\06 - Temptation.wav
Pre-gap length 0:00:02.23
Peak level 99.4 %
Extraction speed 4.0 X
Track quality 99.9 %
Test CRC CEC4A1AE
Copy CRC CEC4A1AE
Accurately ripped (confidence 7) [0D49D15B] (AR v2)
Copy OK
Track 7
Filename M:\_EAC\Sam Rivers - A New Conception (1966) [FLAC] {2014 Japan SHM-CD Blue Note 24-192 Remaster}\07 - Secret Love.wav
Pre-gap length 0:00:02.22
Peak level 98.6 %
Extraction speed 4.9 X
Track quality 100.0 %
Test CRC 2C416DD7
Copy CRC 2C416DD7
Accurately ripped (confidence 7) [F8B23026] (AR v2)
Copy OK
All tracks accurately ripped
No errors occurred
End of status report
==== Log checksum 525E8FE12BBB165B7E43A2193EEC752D1AC1C12943A23DDD10D6C11D566D5628 ====
 
Содержание индексной карты (.CUE)
REM GENRE Jazz
REM DATE 1966
REM DISCID 3D0A5D07
REM COMMENT "ExactAudioCopy v1.1"
PERFORMER "Sam Rivers"
TITLE "A New Conception"
FILE "01 - When I Fall In Love.wav" WAVE
TRACK 01 AUDIO
TITLE "When I Fall In Love"
PERFORMER "Sam Rivers"
INDEX 01 00:00:00
TRACK 02 AUDIO
TITLE "I'll Never Smile Again"
PERFORMER "Sam Rivers"
INDEX 00 05:49:13
FILE "02 - I'll Never Smile Again.wav" WAVE
INDEX 01 00:00:00
TRACK 03 AUDIO
TITLE "Detour Ahead"
PERFORMER "Sam Rivers"
INDEX 00 05:55:62
FILE "03 - Detour Ahead.wav" WAVE
INDEX 01 00:00:00
TRACK 04 AUDIO
TITLE "That's All"
PERFORMER "Sam Rivers"
INDEX 00 05:08:59
FILE "04 - That's All.wav" WAVE
INDEX 01 00:00:00
TRACK 05 AUDIO
TITLE "What A Difference A Day Makes"
PERFORMER "Sam Rivers"
INDEX 00 05:37:63
FILE "05 - What A Difference A Day Makes.wav" WAVE
INDEX 01 00:00:00
TRACK 06 AUDIO
TITLE "Temptation"
PERFORMER "Sam Rivers"
INDEX 00 06:18:08
FILE "06 - Temptation.wav" WAVE
INDEX 01 00:00:00
TRACK 07 AUDIO
TITLE "Secret Love"
PERFORMER "Sam Rivers"
INDEX 00 07:37:37
FILE "07 - Secret Love.wav" WAVE
INDEX 01 00:00:00
По всем вопросам пишите личное сообщение пользователю M0p94ok.
16:42
140
Нет комментариев. Ваш будет первым!