Вы используете незарегистрированную версию компонента "Вкладки"!

Поиск

(Free Jazz, Avant-Garde Jazz) [CD] Jon Lundbom & Big Five Chord (feat. Jon Irabagon, Moppa Elliott a.o.) - Jeremiah - 2015, FLAC (tracks+.cue), lossless

(Free Jazz, Avant-Garde Jazz) [CD] Jon Lundbom & Big Five Chord (feat. Jon Irabagon, Moppa Elliott a.o.) - Jeremiah - 2015, FLAC (tracks+.cue), lossless
Треклист:
JON LUNDBOM
' ' ' ' ' ' ' ' ' and BIG FIVE CHORD
'
JEREMIAH
Жанр: Free Jazz, Avant-Garde Jazz
Страна-производитель диска (релиза): USA
Год издания: 2015
Издатель (лейбл): Hot Cup Records
Аудиокодек: FLAC (*.flac)
Тип рипа: tracks+.cue
Битрейт аудио: lossless
Продолжительность: 56:23
Источник (релизер): спасибо embeejay
Наличие сканов: нет
Треклист:
1. The Bottle
2. Frog Eye
3. Scratch Ankle
4. First Harvest
5. Lick Skillet
6. W.P.S.M.
7. Screamer
 
Лог создания рипа
Exact Audio Copy V1.1 from 23. June 2015
EAC extraction logfile from 23. September 2015, 19:48
Jon Lundbom & Big Five Chord / Jeremiah
Used drive : MATSHITADVD-RAM UJ-862 Adapter: 1 ID: 0
Read mode : Secure
Utilize accurate stream : Yes
Defeat audio cache : Yes
Make use of C2 pointers : No
Read offset correction : 102
Overread into Lead-In and Lead-Out : No
Fill up missing offset samples with silence : Yes
Delete leading and trailing silent blocks : No
Null samples used in CRC calculations : Yes
Used interface : Native Win32 interface for Win NT & 2000
Gap handling : Appended to previous track
Used output format : User Defined Encoder
Selected bitrate : 1024 kBit/s
Quality : High
Add ID3 tag : No
Command line compressor : C:\Program Files (x86)\Exact Audio Copy\FLAC\FLAC.EXE
Additional command line options : -8 -V -T "ARTIST=%artist%" -T "TITLE=%title%" -T "ALBUM=%albumtitle%" -T "DATE=%year%" -T "TRACKNUMBER=%tracknr%" -T "GENRE=%genre%" -T "PERFORMER=%albuminterpret%" -T "COMPOSER=%composer%" %haslyrics%--tag-from-file=LYRICS="%lyricsfile%"%haslyrics% -T "ALBUMARTIST=%albumartist%" -T "DISCNUMBER=%cdnumber%" -T "TOTALDISCS=%totalcds%" -T "TOTALTRACKS=%numtracks%" -T "COMMENT=%comment%" %source% -o %dest%
TOC of the extracted CD
Track | Start | Length | Start sector | End sector
---------------------------------------------------------
1 | 0:00.00 | 7:58.06 | 0 | 35855
2 | 7:58.06 | 8:25.49 | 35856 | 73779
3 | 16:23.55 | 6:50.18 | 73780 | 104547
4 | 23:13.73 | 7:53.07 | 104548 | 140029
5 | 31:07.05 | 6:43.26 | 140030 | 170280
6 | 37:50.31 | 9:05.72 | 170281 | 211227
7 | 46:56.28 | 9:26.74 | 211228 | 253751
Track 1
Filename C:\!EACrips\Jon Lundbom & Big Five Chord - Jeremiah (2015) [FLAC]\01 - The Bottle.wav
Pre-gap length 0:00:02.00
Peak level 97.7 %
Extraction speed 1.6 X
Track quality 99.9 %
Test CRC 243E103D
Copy CRC 243E103D
Track not present in AccurateRip database
Copy OK
Track 2
Filename C:\!EACrips\Jon Lundbom & Big Five Chord - Jeremiah (2015) [FLAC]\02 - Frog Eye.wav
Peak level 97.7 %
Extraction speed 2.0 X
Track quality 100.0 %
Test CRC DF7C20E7
Copy CRC DF7C20E7
Track not present in AccurateRip database
Copy OK
Track 3
Filename C:\!EACrips\Jon Lundbom & Big Five Chord - Jeremiah (2015) [FLAC]\03 - Scratch Ankle.wav
Peak level 97.7 %
Extraction speed 2.3 X
Track quality 100.0 %
Test CRC 83714D29
Copy CRC 83714D29
Track not present in AccurateRip database
Copy OK
Track 4
Filename C:\!EACrips\Jon Lundbom & Big Five Chord - Jeremiah (2015) [FLAC]\04 - First Harvest.wav
Peak level 97.7 %
Extraction speed 2.3 X
Track quality 99.9 %
Test CRC B653033F
Copy CRC B653033F
Track not present in AccurateRip database
Copy OK
Track 5
Filename C:\!EACrips\Jon Lundbom & Big Five Chord - Jeremiah (2015) [FLAC]\05 - Lick Skillet.wav
Peak level 97.7 %
Extraction speed 2.5 X
Track quality 99.9 %
Test CRC DBAD9522
Copy CRC DBAD9522
Track not present in AccurateRip database
Copy OK
Track 6
Filename C:\!EACrips\Jon Lundbom & Big Five Chord - Jeremiah (2015) [FLAC]\06 - Wiccan Prayer Song Medley.wav
Peak level 97.7 %
Extraction speed 2.9 X
Track quality 100.0 %
Test CRC B394CBC4
Copy CRC B394CBC4
Track not present in AccurateRip database
Copy OK
Track 7
Filename C:\!EACrips\Jon Lundbom & Big Five Chord - Jeremiah (2015) [FLAC]\07 - Screamer (Live).wav
Peak level 97.7 %
Extraction speed 3.1 X
Track quality 100.0 %
Test CRC 1D39AF53
Copy CRC 1D39AF53
Track not present in AccurateRip database
Copy OK
None of the tracks are present in the AccurateRip database
No errors occurred
End of status report
---- CUETools DB Plugin V2.1.6
[CTDB TOCID: qEYCBjcxeRAdKRaHxFxyNTfVLsI-] found
Submit result: qEYCBjcxeRAdKRaHxFxyNTfVLsI- has been confirmed
Track | CTDB Status
1 | (1/1) Accurately ripped
2 | (1/1) Accurately ripped
3 | (1/1) Accurately ripped
4 | (1/1) Accurately ripped
5 | (1/1) Accurately ripped
6 | (1/1) Accurately ripped
7 | (1/1) Accurately ripped
==== Log checksum 74104473BFB534BF334FB2088E16438AF2AA6D6D2E85E543642852879E127991 ====
 
Содержание индексной карты (.CUE)
REM GENRE Jazz
REM DATE 2015
REM DISCID 6E0D3707
REM COMMENT "ExactAudioCopy v1.1"
PERFORMER "Jon Lundbom & Big Five Chord"
TITLE "Jeremiah"
FILE "01 - The Bottle.wav" WAVE
TRACK 01 AUDIO
TITLE "The Bottle"
PERFORMER "Jon Lundbom & Big Five Chord"
ISRC QM9AA1486109
INDEX 01 00:00:00
FILE "02 - Frog Eye.wav" WAVE
TRACK 02 AUDIO
TITLE "Frog Eye"
PERFORMER "Jon Lundbom & Big Five Chord"
ISRC QM9AA1486110
INDEX 01 00:00:00
FILE "03 - Scratch Ankle.wav" WAVE
TRACK 03 AUDIO
TITLE "Scratch Ankle"
PERFORMER "Jon Lundbom & Big Five Chord"
ISRC QM9AA1486111
INDEX 01 00:00:00
FILE "04 - First Harvest.wav" WAVE
TRACK 04 AUDIO
TITLE "First Harvest"
PERFORMER "Jon Lundbom & Big Five Chord"
ISRC QM9AA1486112
INDEX 01 00:00:00
FILE "05 - Lick Skillet.wav" WAVE
TRACK 05 AUDIO
TITLE "Lick Skillet"
PERFORMER "Jon Lundbom & Big Five Chord"
ISRC QM9AA1486113
INDEX 01 00:00:00
FILE "06 - Wiccan Prayer Song Medley.wav" WAVE
TRACK 06 AUDIO
TITLE "Wiccan Prayer Song Medley"
PERFORMER "Jon Lundbom & Big Five Chord"
ISRC QM9AA1486114
INDEX 01 00:00:00
FILE "07 - Screamer (Live).wav" WAVE
TRACK 07 AUDIO
TITLE "Screamer (Live)"
PERFORMER "Jon Lundbom & Big Five Chord"
ISRC QM9AA1486115
INDEX 01 00:00:00
 
Об альбоме
The seventh album by guitarist Jon Lundbom and his septet Big Five Chord leaves little room for fence sitters. His music, like fellow band members Jon Irabagon and Moppa Elliott of Mostly Other People Do The Killing, walks the razor's edge between clamorous and cultured. It's comfort is often the discombobulation. That said, isn't that what jazz (real jazz) has always been about?
Jeremiah his latest release, follows a 2-disc live recording Liverevil (Hot Cup, 2013). While six of the seven tracks are from a studio session, the entire affair smells of the abraded rawness of live music.
The disc opens with "The Bottle," a collision between composed and improvised music. His septet of hard-bodied players tugs the music this way and that until saxophonist Bryan Murray honks-out a goose call on his balto! saxophone, which is an alto with a baritone mouthpiece and a plastic reed. The piece threatens to, yet never does come uncoupled. That theme, one of joy-riding in a stolen car, is ever present here. Credit the cohesion to Elliott and drummer Dan Monaghan.
As he has on previous records and performances, Lundbom adds to the septet. On "Scratch Ankle," saxophonist Justin Wood mixes his alto with Irabagon's tenor, trombonist Sam Kulik switches places. The music is devilishly tilted toward entropy, but collapse never comes. "Lick Skillet" opens with the extended trombone vocalization of Kulik that gives way to tight horn charts, Wood's flute, and Lundbom's scribbling lines. His guitar sound is oriented more towards Pete Cosey and John McLaughlin than he is to, say Kurt Rosenwinkel or Pat Martino. Lundbom wrote all the music here, except for the two traditional Wiccan pieces, "First Harvest" and "Wiccan Prayer Song Medley." Each piece is re- contextualized as the equivalent of modern witchcraft, or in other words, jazz music.
4/5 stars
(Mark Corroto, AllAboutJazz)
 
Состав

Jon Lundbom - guitar
Jon Irabagon - soprano saxophone
Bryan Murray - tenors saxophone, balto! saxophone
Moppa Elliott - bass
Dan Monaghan - drums
and
Justin Wood - flute, alto saxophone
Sam Kulik - trombone
По всем вопросам пишите личное сообщение пользователю M0p94ok.
16:41
167
Нет комментариев. Ваш будет первым!