Поиск

(Post-Bop, African Jazz, World Fusion) [CD] Dollar Brand (Abdullah Ibrahim) - African Breeze (1974) - 2015 {UCCJ-9132}, FLAC (tracks+.cue), lossless

(Post-Bop, African Jazz, World Fusion) [CD] Dollar Brand (Abdullah Ibrahim) - African Breeze (1974) - 2015 {UCCJ-9132}, FLAC (tracks+.cue), lossless
Треклист:
Dollar Brand - African Breeze (1974) Жанр: Post-Bop, African Jazz, World Fusion
Носитель: CD
Страна-производитель диска (релиза): Japan
Год издания: 2015
Издатель (лейбл): East Wind Music/Universal Japan
Номер по каталогу: UCCJ-9132
Аудиокодек: FLAC (*.flac)
Тип рипа: tracks+.cue
Битрейт аудио: lossless
Продолжительность: 41:42
Rip by ruskaval
Наличие сканов в содержимом раздачи: да
Треклист:
01. Nim Vlula (The Rain Song) (3:26)
02. Msunduza (2:11)
03. Salaam (Peace) (2:06)
04. Ancient Africa (11:26)
05. Salaam (Peace) (1:27)
06. Single Petal Of A Rose (1:03)
07. Come Sunday (1:41)
08. Monk From Harlem (5:13)
09. Cherry (2:38)
10. African Sun (4:20)
11. Tintinyana (6:12)
 
 
Лог создания рипа
Exact Audio Copy V1.0 beta 4 from 7. December 2014
EAC extraction logfile from 10. June 2015, 21:42
Dollar Brand / African Breeze
Used drive : ATAPI iHAS124 B Adapter: 1 ID: 0
Read mode : Secure
Utilize accurate stream : Yes
Defeat audio cache : Yes
Make use of C2 pointers : No
Read offset correction : 6
Overread into Lead-In and Lead-Out : No
Fill up missing offset samples with silence : Yes
Delete leading and trailing silent blocks : No
Null samples used in CRC calculations : Yes
Used interface : Native Win32 interface for Win NT & 2000
Gap handling : Appended to previous track
Used output format : User Defined Encoder
Selected bitrate : 1024 kBit/s
Quality : High
Add ID3 tag : No
Command line compressor : C:\Program Files (x86)\FLAC Frontend\tools\flac.exe
Additional command line options : -8 -V -T "ARTIST=%artist%" -T "TITLE=%title%" -T "ALBUM=%albumtitle%" -T "DATE=%year%" -T "TRACKNUMBER=%tracknr%" -T "TOTALTRACKS=%numtracks%" -T "GENRE=%genre%" -T "ALBUMARTIST=%albumartist%" -T "ALBUM ARTIST=%albumartist%" -T "COMMENT=EAC Secure Mode, Test & Copy, AccurateRip, FLAC -8" %source%
TOC of the extracted CD
Track | Start | Length | Start sector | End sector
---------------------------------------------------------
1 | 0:00.00 | 3:26.08 | 0 | 15457
2 | 3:26.08 | 2:10.47 | 15458 | 25254
3 | 5:36.55 | 2:05.63 | 25255 | 34692
4 | 7:42.43 | 11:25.67 | 34693 | 86134
5 | 19:08.35 | 1:26.63 | 86135 | 92647
6 | 20:35.23 | 1:02.62 | 92648 | 97359
7 | 21:38.10 | 1:40.70 | 97360 | 104929
8 | 23:19.05 | 5:13.15 | 104930 | 128419
9 | 28:32.20 | 2:38.00 | 128420 | 140269
10 | 31:10.20 | 4:20.23 | 140270 | 159792
11 | 35:30.43 | 6:11.38 | 159793 | 187655
Track 1
Filename D:\_EAC\Dollar Brand - African Breeze (1974) [FLAC] {2015 DSD Japan East Wind}\01 - Nim Vlula (The Rain Song).wav
Pre-gap length 0:00:02.00
Peak level 96.1 %
Extraction speed 3.3 X
Track quality 100.0 %
Test CRC 54C85E1F
Copy CRC 54C85E1F
Accurately ripped (confidence 3) [5FA0244D] (AR v2)
Copy OK
Track 2
Filename D:\_EAC\Dollar Brand - African Breeze (1974) [FLAC] {2015 DSD Japan East Wind}\02 - Msunduza.wav
Peak level 67.7 %
Extraction speed 3.3 X
Track quality 100.0 %
Test CRC A3C880FE
Copy CRC A3C880FE
Accurately ripped (confidence 3) [7ACEC6A0] (AR v2)
Copy OK
Track 3
Filename D:\_EAC\Dollar Brand - African Breeze (1974) [FLAC] {2015 DSD Japan East Wind}\03 - Salaam (Peace).wav
Peak level 25.4 %
Extraction speed 2.4 X
Track quality 99.9 %
Test CRC CFC2BFAD
Copy CRC CFC2BFAD
Accurately ripped (confidence 3) [6B01B6BC] (AR v2)
Copy OK
Track 4
Filename D:\_EAC\Dollar Brand - African Breeze (1974) [FLAC] {2015 DSD Japan East Wind}\04 - Ancient Africa.wav
Peak level 100.0 %
Extraction speed 4.4 X
Track quality 99.9 %
Test CRC 3A0C0893
Copy CRC 3A0C0893
Accurately ripped (confidence 3) [540710E4] (AR v2)
Copy OK
Track 5
Filename D:\_EAC\Dollar Brand - African Breeze (1974) [FLAC] {2015 DSD Japan East Wind}\05 - Salaam (Peace).wav
Peak level 85.3 %
Extraction speed 3.8 X
Track quality 100.0 %
Test CRC 56C5B48A
Copy CRC 56C5B48A
Accurately ripped (confidence 3) [F8EA7661] (AR v2)
Copy OK
Track 6
Filename D:\_EAC\Dollar Brand - African Breeze (1974) [FLAC] {2015 DSD Japan East Wind}\06 - Single Petal Of A Rose.wav
Pre-gap length 0:00:02.45
Peak level 45.0 %
Extraction speed 3.5 X
Track quality 100.0 %
Test CRC 801373E0
Copy CRC 801373E0
Accurately ripped (confidence 3) [3B11A06B] (AR v2)
Copy OK
Track 7
Filename D:\_EAC\Dollar Brand - African Breeze (1974) [FLAC] {2015 DSD Japan East Wind}\07 - Come Sunday.wav
Peak level 43.2 %
Extraction speed 2.8 X
Track quality 99.8 %
Test CRC AD801D17
Copy CRC AD801D17
Accurately ripped (confidence 3) [A971E9C1] (AR v2)
Copy OK
Track 8
Filename D:\_EAC\Dollar Brand - African Breeze (1974) [FLAC] {2015 DSD Japan East Wind}\08 - Monk From Harlem.wav
Peak level 52.6 %
Extraction speed 5.4 X
Track quality 100.0 %
Test CRC 2C6EAE28
Copy CRC 2C6EAE28
Accurately ripped (confidence 3) [26899A74] (AR v2)
Copy OK
Track 9
Filename D:\_EAC\Dollar Brand - African Breeze (1974) [FLAC] {2015 DSD Japan East Wind}\09 - Cherry.wav
Peak level 81.6 %
Extraction speed 3.7 X
Track quality 99.9 %
Test CRC 807AEFCC
Copy CRC 807AEFCC
Accurately ripped (confidence 3) [450D0581] (AR v2)
Copy OK
Track 10
Filename D:\_EAC\Dollar Brand - African Breeze (1974) [FLAC] {2015 DSD Japan East Wind}\10 - African Sun.wav
Peak level 100.0 %
Extraction speed 5.7 X
Track quality 100.0 %
Test CRC 60F6A00B
Copy CRC 60F6A00B
Accurately ripped (confidence 3) [45A1BEF3] (AR v2)
Copy OK
Track 11
Filename D:\_EAC\Dollar Brand - African Breeze (1974) [FLAC] {2015 DSD Japan East Wind}\11 - Tintinyana.wav
Peak level 100.0 %
Extraction speed 5.4 X
Track quality 99.9 %
Test CRC 7688974C
Copy CRC 7688974C
Accurately ripped (confidence 3) [A23F5EC6] (AR v2)
Copy OK
All tracks accurately ripped
No errors occurred
End of status report
==== Log checksum E906A8AFB5B64F84928A8A621C4BE434D9D50713F7BA80080C3910733D819F70 ====
 
Содержание индексной карты (.CUE)
REM GENRE JAzz
REM DATE 1974
REM DISCID 6D09C60B
REM COMMENT "ExactAudioCopy v1.0b4"
PERFORMER "Dollar Brand"
TITLE "African Breeze"
FILE "01 - Nim Vlula (The Rain Song).wav" WAVE
TRACK 01 AUDIO
TITLE "Nim Vlula (The Rain Song)"
PERFORMER "Dollar Brand"
INDEX 01 00:00:00
FILE "02 - Msunduza.wav" WAVE
TRACK 02 AUDIO
TITLE "Msunduza"
PERFORMER "Dollar Brand"
INDEX 01 00:00:00
FILE "03 - Salaam (Peace).wav" WAVE
TRACK 03 AUDIO
TITLE "Salaam (Peace)"
PERFORMER "Dollar Brand"
INDEX 01 00:00:00
FILE "04 - Ancient Africa.wav" WAVE
TRACK 04 AUDIO
TITLE "Ancient Africa"
PERFORMER "Dollar Brand"
INDEX 01 00:00:00
FILE "05 - Salaam (Peace).wav" WAVE
TRACK 05 AUDIO
TITLE "Salaam (Peace)"
PERFORMER "Dollar Brand"
INDEX 01 00:00:00
TRACK 06 AUDIO
TITLE "Single Petal Of A Rose"
PERFORMER "Dollar Brand"
INDEX 00 01:24:18
FILE "06 - Single Petal Of A Rose.wav" WAVE
INDEX 01 00:00:00
FILE "07 - Come Sunday.wav" WAVE
TRACK 07 AUDIO
TITLE "Come Sunday"
PERFORMER "Dollar Brand"
INDEX 01 00:00:00
FILE "08 - Monk From Harlem.wav" WAVE
TRACK 08 AUDIO
TITLE "Monk From Harlem"
PERFORMER "Dollar Brand"
INDEX 01 00:00:00
FILE "09 - Cherry.wav" WAVE
TRACK 09 AUDIO
TITLE "Cherry"
PERFORMER "Dollar Brand"
INDEX 01 00:00:00
FILE "10 - African Sun.wav" WAVE
TRACK 10 AUDIO
TITLE "African Sun"
PERFORMER "Dollar Brand"
INDEX 01 00:00:00
FILE "11 - Tintinyana.wav" WAVE
TRACK 11 AUDIO
TITLE "Tintinyana"
PERFORMER "Dollar Brand"
INDEX 01 00:00:00
18:59
595
Нет комментариев. Ваш будет первым!