Поиск

(Post-Bop, African Jazz) Randy Weston - The Spirits of Our Ancestors (2CD) - 1991, FLAC (tracks+.cue), lossless

(Post-Bop, African Jazz) Randy Weston - The Spirits of Our Ancestors (2CD) - 1991, FLAC (tracks+.cue), lossless
Треклист:
Randy Weston - The Spirits of Our Ancestors
Жанр: Post-Bop, African Jazz
Страна-производитель диска: США
Год издания: 1992
Издатель (лейбл): Antilles
Номер по каталогу: 314-511 896-2
Аудиокодек: FLAC (*.flac)
Тип рипа: tracks+.cue
Битрейт аудио: lossless
Продолжительность: CD1 - 44:21; CD2 - 62:10
Источник (релизер): copecetic (what)
Наличие сканов в содержимом раздачи: да
Треклист:
CD1:
01. African Village Bedford-Stuyvesant 1 (Weston) - 3:21
02. The Healers (Weston) - 10:48
03. African Cookbook (Weston) - 17:17
04. La Elaha-Ella Allah/Morad Allah (Trad.) - 6:43
05. The Call (Weston) - 6:12
CD2:
01. African Village Bedford-Stuyvesant 2 (Weston) - 8:30
02. The Seventh Queen (Weston) - 16:29
03. Blue Moses (Weston) - 12:01
04. African Sunrise (Weston) - 19:54
05. A Prayer for Us All (Weston) - 5:16
Состав:
Randy Weston - piano
Idrees Sulieman, Dizzy Gillespie - trumpet
Benny Powell - trombone, bass trombone
Talib Kibwe - alto saxophone, alto flute
Billy Harper, Dewey Redman - tenor saxophone
Pharoah Sanders - tenor saxophone, gaita
Alex Blake, Jamil Nasser - bass
Idris Muhammad - drums
Big Black, Azzedin Weston - percussion
Yassir Chadly - genbri, karkaba, clapping, vocals
Melba Liston - arranger
Recorded at BMG Studios, New York on May 20-22, 1991.
 
Техническая информация
 
Лог создания рипа CD1
Exact Audio Copy V1.0 beta 3 from 29. August 2011
EAC extraction logfile from 27. June 2013, 23:23
Randy Weston / The Spirits of Our Ancestors (CD1)
Used drive : HL-DT-STBD-RE WH14NS40 Adapter: 1 ID: 0
Read mode : Secure
Utilize accurate stream : Yes
Defeat audio cache : Yes
Make use of C2 pointers : No
Read offset correction : 6
Overread into Lead-In and Lead-Out : No
Fill up missing offset samples with silence : Yes
Delete leading and trailing silent blocks : No
Null samples used in CRC calculations : Yes
Used interface : Native Win32 interface for Win NT & 2000
Gap handling : Appended to previous track
Used output format : User Defined Encoder
Selected bitrate : 1024 kBit/s
Quality : High
Add ID3 tag : No
Command line compressor : C:\Program Files\Exact Audio Copy 1.0\Flac\flac.exe
Additional command line options : -8 -V -T "ARTIST=%artist%" -T "TITLE=%title%" -T "ALBUM=%albumtitle%" -T "DATE=%year%" -T "TRACKNUMBER=%tracknr%" -T "GENRE=%genre%" -T "PERFORMER=%albuminterpret%" -T "COMPOSER=%composer%" %haslyrics%--tag-from-file=LYRICS="%lyricsfile%"%haslyrics% -T "ALBUMARTIST=%albumartist%" -T "DISCNUMBER=%cdnumber%" -T "TOTALDISCS=%totalcds%" -T "TOTALTRACKS=%numtracks%" -T "COMMENT=%comment%" %source% -o %dest%
TOC of the extracted CD
Track | Start | Length | Start sector | End sector
---------------------------------------------------------
1 | 0:00.33 | 3:21.10 | 33 | 15117
2 | 3:21.43 | 10:48.10 | 15118 | 63727
3 | 14:09.53 | 17:16.65 | 63728 | 141492
4 | 31:26.43 | 6:43.12 | 141493 | 171729
5 | 38:09.55 | 6:12.23 | 171730 | 199652
Track 1
Filename M:\MUSIC2\CD AUDIO RIPS\Randy Weston - The Spirits of Our Ancestors (1992) - FLAC\CD1\01 - African Village Bedford-Stuyvesant 1.wav
Pre-gap length 0:00:02.44
Peak level 93.5 %
Extraction speed 1.0 X
Track quality 100.0 %
Test CRC BE13F8DF
Copy CRC BE13F8DF
Accurately ripped (confidence 5) [22E04B63] (AR v1)
Copy OK
Track 2
Filename M:\MUSIC2\CD AUDIO RIPS\Randy Weston - The Spirits of Our Ancestors (1992) - FLAC\CD1\02 - The Healers.wav
Pre-gap length 0:00:04.53
Peak level 94.2 %
Extraction speed 1.3 X
Track quality 100.0 %
Test CRC 26A08538
Copy CRC 26A08538
Accurately ripped (confidence 5) [FA6B21DE] (AR v1)
Copy OK
Track 3
Filename M:\MUSIC2\CD AUDIO RIPS\Randy Weston - The Spirits of Our Ancestors (1992) - FLAC\CD1\03 - African Cookbook.wav
Pre-gap length 0:00:03.86
Peak level 98.4 %
Extraction speed 1.7 X
Track quality 100.0 %
Test CRC 880AF3A0
Copy CRC 880AF3A0
Accurately ripped (confidence 6) [4CF9A669] (AR v1)
Copy OK
Track 4
Filename M:\MUSIC2\CD AUDIO RIPS\Randy Weston - The Spirits of Our Ancestors (1992) - FLAC\CD1\04 - La Elaha-Ella Allah,Morad Allah.wav
Pre-gap length 0:00:03.84
Peak level 88.6 %
Extraction speed 1.9 X
Track quality 100.0 %
Test CRC 3FCA7060
Copy CRC 3FCA7060
Accurately ripped (confidence 7) [FE7A3879] (AR v1)
Copy OK
Track 5
Filename M:\MUSIC2\CD AUDIO RIPS\Randy Weston - The Spirits of Our Ancestors (1992) - FLAC\CD1\05 - The Call.wav
Pre-gap length 0:00:03.82
Peak level 88.0 %
Extraction speed 2.0 X
Track quality 100.0 %
Test CRC AF2CF1E3
Copy CRC AF2CF1E3
Accurately ripped (confidence 6) [3FE53459] (AR v1)
Copy OK
All tracks accurately ripped
No errors occurred
End of status report
==== Log checksum 19FCE0B43E2B05C10ABD8056030E28A32288563900C0ED535C2AD84B49043DE3 ====
 
Лог создания рипа CD2
Exact Audio Copy V1.0 beta 3 from 29. August 2011
EAC extraction logfile from 27. June 2013, 23:37
Randy Weston / The Spirits of Our Ancestors (CD2)
Used drive : TSSTcorpCDDVDW SH-S223L Adapter: 3 ID: 0
Read mode : Secure
Utilize accurate stream : Yes
Defeat audio cache : Yes
Make use of C2 pointers : No
Read offset correction : 6
Overread into Lead-In and Lead-Out : No
Fill up missing offset samples with silence : Yes
Delete leading and trailing silent blocks : No
Null samples used in CRC calculations : Yes
Used interface : Native Win32 interface for Win NT & 2000
Gap handling : Appended to previous track
Used output format : User Defined Encoder
Selected bitrate : 1024 kBit/s
Quality : High
Add ID3 tag : No
Command line compressor : C:\Program Files\Exact Audio Copy 1.0\Flac\flac.exe
Additional command line options : -8 -V -T "ARTIST=%artist%" -T "TITLE=%title%" -T "ALBUM=%albumtitle%" -T "DATE=%year%" -T "TRACKNUMBER=%tracknr%" -T "GENRE=%genre%" -T "PERFORMER=%albuminterpret%" -T "COMPOSER=%composer%" %haslyrics%--tag-from-file=LYRICS="%lyricsfile%"%haslyrics% -T "ALBUMARTIST=%albumartist%" -T "DISCNUMBER=%cdnumber%" -T "TOTALDISCS=%totalcds%" -T "TOTALTRACKS=%numtracks%" -T "COMMENT=%comment%" %source% -o %dest%
TOC of the extracted CD
Track | Start | Length | Start sector | End sector
---------------------------------------------------------
1 | 0:00.32 | 8:30.30 | 32 | 38311
2 | 8:30.62 | 16:28.43 | 38312 | 112454
3 | 24:59.30 | 12:01.27 | 112455 | 166556
4 | 37:00.57 | 19:54.10 | 166557 | 256116
5 | 56:54.67 | 5:16.28 | 256117 | 279844
Track 1
Filename M:\MUSIC2\CD AUDIO RIPS\Randy Weston - The Spirits of Our Ancestors (1992) - FLAC\CD2\01 - African Village Bedford-Stuyvesant 2.wav
Pre-gap length 0:00:02.42
Peak level 98.6 %
Extraction speed 2.4 X
Track quality 100.0 %
Test CRC 66639D29
Copy CRC 66639D29
Accurately ripped (confidence 6) [491A6DAF] (AR v1)
Copy OK
Track 2
Filename M:\MUSIC2\CD AUDIO RIPS\Randy Weston - The Spirits of Our Ancestors (1992) - FLAC\CD2\02 - The Seventh Queen.wav
Pre-gap length 0:00:03.66
Peak level 100.0 %
Extraction speed 3.1 X
Track quality 100.0 %
Test CRC B8407CC4
Copy CRC B8407CC4
Accurately ripped (confidence 8) [FF95A594] (AR v1)
Copy OK
Track 3
Filename M:\MUSIC2\CD AUDIO RIPS\Randy Weston - The Spirits of Our Ancestors (1992) - FLAC\CD2\03 - Blue Moses.wav
Pre-gap length 0:00:02.97
Peak level 94.9 %
Extraction speed 3.7 X
Track quality 100.0 %
Test CRC 2D35E71D
Copy CRC 2D35E71D
Accurately ripped (confidence 7) [0B7D0191] (AR v1)
Copy OK
Track 4
Filename M:\MUSIC2\CD AUDIO RIPS\Randy Weston - The Spirits of Our Ancestors (1992) - FLAC\CD2\04 - African Sunrise.wav
Pre-gap length 0:00:04.16
Peak level 97.3 %
Extraction speed 4.3 X
Track quality 100.0 %
Test CRC 96397642
Copy CRC 96397642
Accurately ripped (confidence 8) [D886DC55] (AR v1)
Copy OK
Track 5
Filename M:\MUSIC2\CD AUDIO RIPS\Randy Weston - The Spirits of Our Ancestors (1992) - FLAC\CD2\05 - A Prayer for Us All.wav
Pre-gap length 0:00:03.40
Peak level 96.9 %
Extraction speed 3.0 X
Track quality 99.9 %
Test CRC 3E1543C1
Copy CRC 3E1543C1
Accurately ripped (confidence 7) [DDC98CA2] (AR v1)
Copy OK
All tracks accurately ripped
No errors occurred
End of status report
==== Log checksum 29521D08C7285F8B213C2CAB2073504FA2C00375B4D7710C4662C73B65EB6211 ====
 
Содержание индексной карты (.CUE) CD1
REM GENRE Jazz
REM DATE 1991
REM DISCID 3C0A6605
REM COMMENT "ExactAudioCopy v1.0b3"
PERFORMER "Randy Weston"
TITLE "The Spirits of Our Ancestors CD1"
FILE "01 - African Village Bedford-Stuyvesant 1.wav" WAVE
TRACK 01 AUDIO
TITLE "African Village Bedford-Stuyvesant 1"
PERFORMER "Randy Weston"
PREGAP 00:00:33
INDEX 01 00:00:00
TRACK 02 AUDIO
TITLE "The Healers"
PERFORMER "Randy Weston"
INDEX 00 03:16:45
FILE "02 - The Healers.wav" WAVE
INDEX 01 00:00:00
TRACK 03 AUDIO
TITLE "African Cookbook"
PERFORMER "Randy Weston"
INDEX 00 10:44:20
FILE "03 - African Cookbook.wav" WAVE
INDEX 01 00:00:00
TRACK 04 AUDIO
TITLE "La Elaha-Ella Allah/Morad Allah"
PERFORMER "Randy Weston"
INDEX 00 17:13:02
FILE "04 - La Elaha-Ella Allah-Morad Allah.wav" WAVE
INDEX 01 00:00:00
TRACK 05 AUDIO
TITLE "The Call"
PERFORMER "Randy Weston"
INDEX 00 06:39:25
FILE "05 - The Call.wav" WAVE
INDEX 01 00:00:00
 
Содержание индексной карты (.CUE) CD2
REM GENRE Jazz
REM DATE 1991
REM DISCID 270E9305
REM COMMENT "ExactAudioCopy v1.0b3"
PERFORMER "Randy Weston"
TITLE "The Spirits of Our Ancestors CD2"
FILE "01 - African Village Bedford-Stuyvesant 2.wav" WAVE
TRACK 01 AUDIO
TITLE "African Village Bedford-Stuyvesant 2"
PERFORMER "Randy Weston"
PREGAP 00:00:32
INDEX 01 00:00:00
TRACK 02 AUDIO
TITLE "The Seventh Queen"
PERFORMER "Randy Weston"
INDEX 00 08:26:55
FILE "02 - The Seventh Queen.wav" WAVE
INDEX 01 00:00:00
TRACK 03 AUDIO
TITLE "Blue Moses"
PERFORMER "Randy Weston"
INDEX 00 16:25:45
FILE "03 - Blue Moses.wav" WAVE
INDEX 01 00:00:00
TRACK 04 AUDIO
TITLE "African Sunrise"
PERFORMER "Randy Weston"
INDEX 00 11:57:15
FILE "04 - African Sunrise.wav" WAVE
INDEX 01 00:00:00
TRACK 05 AUDIO
TITLE "A Prayer for Us All"
PERFORMER "Randy Weston"
INDEX 00 19:50:55
FILE "05 - A Prayer for Us All.wav" WAVE
INDEX 01 00:00:00
 
Отчет CUETools CD1
[CUETools log; Date: 27.10.2013 21:48:52; Version: 2.1.4]
Pregap length 00:00:33.
[CTDB TOCID: _f6WZxl5Gw.0nUg46q4LGkNO8io-] found.
Track | CTDB Status
1 | (1/1) Accurately ripped
2 | (1/1) Accurately ripped
3 | (1/1) Accurately ripped
4 | (1/1) Accurately ripped
5 | (1/1) Accurately ripped
[AccurateRip ID: 0009078b-002b6559-3c0a6605] found.
Track [ CRC | V2 ] Status
01 [22e04b63|466cfdbb] (05+04/09) Accurately ripped
02 [fa6b21de|eb66afe2] (05+04/09) Accurately ripped
03 [4cf9a669|4137407a] (06+04/10) Accurately ripped
04 [fe7a3879|66103fba] (07+04/11) Accurately ripped
05 [3fe53459|8a3e20ab] (06+04/10) Accurately ripped
Track Peak [ CRC32 ] [W/O NULL] [ LOG ]
-- 98,4 [DDA57628] [78063B67]
01 93,5 [BE13F8DF] [7D3CC475] CRC32
02 94,2 [26A08538] [7DA620C4] CRC32
03 98,4 [880AF3A0] [E6DD3747] CRC32
04 88,6 [3FCA7060] [D0B23CAC] CRC32
05 88,0 [AF2CF1E3] [D0410111] CRC32
 
Отчет CUETools CD2
[CUETools log; Date: 27.10.2013 21:49:08; Version: 2.1.4]
Pregap length 00:00:32.
[CTDB TOCID: LolrL56HV9sKJgWlCgv.8bUAjds-] found.
Track | CTDB Status
1 | (1/1) Accurately ripped
2 | (1/1) Accurately ripped
3 | (1/1) Accurately ripped
4 | (1/1) Accurately ripped
5 | (1/1) Accurately ripped
[AccurateRip ID: 000d0546-003da4e0-270e9305] found.
Track [ CRC | V2 ] Status
01 [491a6daf|2b4fd5f5] (06+04/10) Accurately ripped
02 [ff95a594|2bb28469] (08+03/11) Accurately ripped
03 [0b7d0191|9fa8c655] (07+03/10) Accurately ripped
04 [d886dc55|d34fce0a] (08+03/11) Accurately ripped
05 [ddc98ca2|5471e3a4] (07+05/12) Accurately ripped
Track Peak [ CRC32 ] [W/O NULL] [ LOG ]
-- 100,0 [7743C802] [1B3EA4E6]
01 98,6 [66639D29] [574F750D] CRC32
02 100,0 [B8407CC4] [3FD4F4DC] CRC32
03 94,9 [2D35E71D] [17319401] CRC32
04 97,3 [96397642] [D8A39ADB] CRC32
05 96,9 [3E1543C1] [69B08BDE] CRC32
 
Review by Scott Yanow
Pianist Randy Weston and arranger Melba Liston had a musical reunion on this special double-CD, their first joint project since 1973's Tanjah. Liston's charts for the pianist's ten originals perfectly fit Weston's adventurous style and the twelve-piece group (which includes three percussionists) is filled with highly individual voices including the tenors of Billy Harper and Dewey Redman. With trumpeter Dizzy Gillespie and tenor-saxophonist Pharoah Sanders making guest appearances and Randy Weston heard at the peak of his powers, this is a highly recommended set.
13:41
304
Нет комментариев. Ваш будет первым!