Поиск

(Post-Bop, African Jazz) Randy Weston - Blue Moses - 1972, FLAC (tracks+.cue), lossless

(Post-Bop, African Jazz) Randy Weston - Blue Moses - 1972, FLAC (tracks+.cue), lossless
Randy Weston - Blue Moses
Жанр: Post-Bop, African Jazz
Страна-производитель диска: США
Год издания: 2011
Издатель (лейбл): CTI Masterworks Jazz
Номер по каталогу: 88697 93201 2
Аудиокодек: FLAC (*.flac)
Тип рипа: tracks+.cue
Битрейт аудио: lossless
Продолжительность: 37:07
Источник (релизер): basia64 (what)
Наличие сканов в содержимом раздачи: нет
Треклист:
01. Ifrane (Weston) - 5:19
02. Ganawa (Blue Moses) (Trad.) - 12:36
03. Night in Medina - 6:53
04. Marrakesh Blues - 12:19
Состав:
Randy Weston - piano, electric piano
Freddie Hubbard - trumpet
Bill Cobham - drums
Ron Carter, Bill Wood (#3) - bass
Phil Kraus, Airto Moreira, Azzedin Weston - percussion
Grover Washington , Jr. - tenor saxophone
Hubert Laws - flute, alto flute, bass flute, electric flute, piccolo
Romeo Penque - oboe, English horn, clarinet, flute, alto flute, bass flute, piccolo
George Marge - English horn, clarinet, flute, alto flute, bass flute
David Horowitz - Moog
John Frosk, Alan Rubin, Marvin Stamm - trumpet, flugelhorn
James Buffington, Brooks Tillotson - French horn
Wayne Andre - trombone, baritone horn
Garnett Brown, Warren Covington - trombone
Paul Faulise - trombone, bass trombone
Madame Meddah - vocal (youh youh)
Don Sebesky - arranger
Recorded at Van Gelder Studios, Englewood Cliffs, NJ in March-April, 1972.
 
Лог создания рипа
X Lossless Decoder version 20120609 (141.0)
XLD extraction logfile from 2012-06-17 14:47:10 +0100
Various Artists / Blue Moses
Used drive : HL-DT-ST DVD-RW GH61N (revision PA03)
Ripper mode : XLD Secure Ripper
Disable audio cache : OK for the drive with a cache less than 1375KiB
Make use of C2 pointers : NO
Read offset correction : 667
Max retry count : 20
Gap status : Analyzed, Appended
TOC of the extracted CD
Track | Start | Length | Start sector | End sector
---------------------------------------------------------
1 | 00:00:43 | 05:18:05 | 43 | 23897
2 | 05:18:48 | 12:35:63 | 23898 | 80585
3 | 17:54:36 | 06:52:44 | 80586 | 111529
4 | 24:47:05 | 12:19:32 | 111530 | 166986
AccurateRip Summary (DiscID: 0005d844-0017f75c-2b08b204)
Track 01 : OK (v2, confidence 3/3)
Track 02 : OK (v2, confidence 3/3)
Track 03 : OK (v2, confidence 3/3)
Track 04 : OK (v2, confidence 3/3)
->All tracks accurately ripped.
All Tracks
Album gain : -3.62 dB
Peak : 0.888458
Statistics
Read error : 0
Jitter error (maybe fixed) : 0
Retry sector count : 0
Damaged sector count : 0
Track 01
Filename : /Users/ftontoh/Downloads/01 Randy Weston - Ifrane.flac
Pre-gap length : 00:02:43
Track gain : -3.61 dB
Peak : 0.816772
CRC32 hash (test run) : FB5463FB
CRC32 hash : FB5463FB
CRC32 hash (skip zero) : A658DCA9
AccurateRip v1 signature : 187305B3
AccurateRip v2 signature : BBEA9C94
->Accurately ripped (v2, confidence 3/3)
Statistics
Read error : 0
Jitter error (maybe fixed) : 0
Retry sector count : 0
Damaged sector count : 0
Track 02
Filename : /Users/ftontoh/Downloads/02 Randy Weston;Madame Meddah - Ganawa (Blue Moses).flac
Pre-gap length : 00:02:21
Track gain : -4.38 dB
Peak : 0.873596
CRC32 hash (test run) : 1FAD111D
CRC32 hash : 1FAD111D
CRC32 hash (skip zero) : F12D6B2E
AccurateRip v1 signature : 48E86334
AccurateRip v2 signature : C499CEB5
->Accurately ripped (v2, confidence 3/3)
Statistics
Read error : 0
Jitter error (maybe fixed) : 0
Retry sector count : 0
Damaged sector count : 0
Track 03
Filename : /Users/ftontoh/Downloads/03 Randy Weston - Night In Medina.flac
Pre-gap length : 00:02:24
Track gain : -3.02 dB
Peak : 0.888458
CRC32 hash (test run) : 384DD10E
CRC32 hash : 384DD10E
CRC32 hash (skip zero) : 99F5F463
AccurateRip v1 signature : 5D34EA95
AccurateRip v2 signature : 2425C812
->Accurately ripped (v2, confidence 3/3)
Statistics
Read error : 0
Jitter error (maybe fixed) : 0
Retry sector count : 0
Damaged sector count : 0
Track 04
Filename : /Users/ftontoh/Downloads/04 Randy Weston - Marrakesh Blues.flac
Pre-gap length : 00:02:26
Track gain : -2.39 dB
Peak : 0.845428
CRC32 hash (test run) : D482F990
CRC32 hash : D482F990
CRC32 hash (skip zero) : 531D55DE
AccurateRip v1 signature : CB2EB5F3
AccurateRip v2 signature : 30B4B259
->Accurately ripped (v2, confidence 3/3)
Statistics
Read error : 0
Jitter error (maybe fixed) : 0
Retry sector count : 0
Damaged sector count : 0
No errors occurred
End of status report
 
Содержание индексной карты (.CUE)
TITLE "Blue Moses"
PERFORMER "Randy Weston"
REM GENRE "Jazz"
REM DATE "1972"
REM DISCID 2B08B204
REM REPLAYGAIN_ALBUM_GAIN -3.62 dB
REM REPLAYGAIN_ALBUM_PEAK 0.888458
FILE "01 - Ifrane.flac" WAVE
TRACK 01 AUDIO
TITLE "Ifrane"
ISRC USSM11002575
REM REPLAYGAIN_TRACK_GAIN -3.61 dB
REM REPLAYGAIN_TRACK_PEAK 0.816772
INDEX 00 00:00:00
INDEX 01 00:00:43
TRACK 02 AUDIO
TITLE "Ganawa (Blue Moses)"
ISRC USSM11103268
REM REPLAYGAIN_TRACK_GAIN -4.38 dB
REM REPLAYGAIN_TRACK_PEAK 0.873596
INDEX 00 05:16:27
FILE "02 - Ganawa (Blue Moses).flac" WAVE
INDEX 01 00:00:00
TRACK 03 AUDIO
TITLE "Night in Medina"
ISRC USSM11103269
REM REPLAYGAIN_TRACK_GAIN -3.02 dB
REM REPLAYGAIN_TRACK_PEAK 0.888458
INDEX 00 12:33:39
FILE "03 - Night in Medina.flac" WAVE
INDEX 01 00:00:00
TRACK 04 AUDIO
TITLE "Marrakesh Blues"
ISRC USSM11103270
REM REPLAYGAIN_TRACK_GAIN -2.39 dB
REM REPLAYGAIN_TRACK_PEAK 0.845428
INDEX 00 06:50:18
FILE "04 - Marrakesh Blues.flac" WAVE
INDEX 01 00:00:00
 
Отчет CUETools
[CUETools log; Date: 27.10.2013 21:21:26; Version: 2.1.4]
Pregap length 00:00:43.
[CTDB TOCID: BZgIxUZRCNDHaCF4icYHJcd1dwU-] found.
Track | CTDB Status
1 | (1/1) Accurately ripped
2 | (1/1) Accurately ripped
3 | (1/1) Accurately ripped
4 | (1/1) Accurately ripped
[AccurateRip ID: 0005d844-0017f75c-2b08b204] found.
Track [ CRC | V2 ] Status
01 [187305b3|bbea9c94] (0+8/8) Accurately ripped
02 [48e86334|c499ceb5] (0+8/8) Accurately ripped
03 [5d34ea95|2425c812] (0+8/8) Accurately ripped
04 [cb2eb5f3|30b4b259] (0+7/7) Accurately ripped
Track Peak [ CRC32 ] [W/O NULL]
-- 88,8 [ABBF0EB1] [A4549316]
01 81,6 [FB5463FB] [A658DCA9]
02 87,3 [1FAD111D] [F12D6B2E]
03 88,8 [384DD10E] [99F5F463]
04 84,5 [D482F990] [531D55DE]
 
Review by Thom Jurek
Recorded in 1972, Blue Moses, the most commercially successful album in pianist/composer Randy Weston's catalog remains one of his most controversial due to his conflicted feelings about the final product, which he feels is too polished and too far from his original intent for the project. Indeed, appearing on Creed Taylor's CTI imprint was an almost certain guarantee of polished production. Weston plays both acoustic and Rhodes piano here; he was backed by a band of CTI's star-studded stable: trumpeter Freddie Hubbard, tenor saxophonist Grover Washington, flutists Hubert Laws and Romeo Penque, drummer Billy Cobham, alternate bassists Ron Carter and Bill Wood, and percussionists Phil Kraus, Airto Moreira, and Weston's son Azzedin. This group was backed by a punchy Don Sebesky-arranged horn section. Blue Moses, consists of four compositions; it was an attempt by Weston to showcase the influence "Ganawa" music from Morocco had on him as a composer. "Ganawa (Blues Moses)," with its frenetic, minor-key piano lines, knotty, Middle Eastern Eastern-sounding charts, and skittering North African rhythms push the listener into a new space, one that stands outside of CTI's usual frame in, and into, the exotic. The brass is aggressive, and while that might overshadow some recordings of lesser substance, Sebesky knew what he had in Weston's tunes, and reigned his players in just enough to keep the dynamics fresh, open, and full of engaged call-and- response playing between Weston, Hubbard, and Laws. So too, album closer "Marrakesh Blues," with wordless backing vocals by Madame Meddah, twinned trumpet and flute lines, gorgeous electric piano solos, and a deep, strolling bassline. It's an Eastern modal blues with the sound of a horn section to boost its drama."Night in the Media" is a labyrinthine, more abstract piece, but utterly atmospheric and colorful in its arrangement, with exciting interplay between Weston's enormous chords and Washington's swinging, soulful saxophone and percussion instruments that create a lithe, spiritual jazz groove. No matter how Weston ultimately feels about Blue Moses, this date succeeds on all levels. Creating a commercially viable recording from the elements presented must not have been easy, but Taylor rose to the occasion and delivered a grooving beauty of an album without compromising Weston's genius.
(Jazz) [LP] [24/96] Randy Weston - Blue Moses - 1972, FLAC (image+.cue)
13:40
375
Нет комментариев. Ваш будет первым!