Поиск

(Post-Bop, African Jazz) Abdullah Ibrahim & Ekaya (Dollar Brand) - African River {Enja} - 1989, FLAC (tracks+.cue), lossless

(Post-Bop, African Jazz) Abdullah Ibrahim & Ekaya (Dollar Brand) - African River {Enja} - 1989, FLAC (tracks+.cue), lossless
Треклист:
Abdullah Ibrahim & Ekaya
African River


Жанр: Post-Bop, African Jazz
Год выпуска диска: 1989
Производитель диска: Germany (Enja)
Аудио кодек: FLAC
Тип рипа: tracks+.cue
Битрейт аудио: lossless
Продолжительность: 45:38
Abdullah Ibrahim - piano
Robin Eubanks - trombone
John Stubblefield - flute, tenor saxophone
Horace Alexander Young - soprano and alto saxophone, piccolo
Howard Johnson - tuba, trumpet, baritone saxophone
Buster Williams - bass
Brian Adams - drums
1. Toi-Toi - 3:27
2. African River - 9:44
3. Joan - Capetown Flower - 5:46
4. Chisa - 4:24
5. Sweet Samba - 5:52
6. Duke 88 - 8:27
7. The Wedding - 3:54
8. The Mountain of the Night - 3:33
All compositions by Abdullah Ibrahim
Digitally recorded by Rudy Van Gelder at the Van Gelder Studio in Englewood Cliffs, N.J., on June 1, 1989
Produced by Abdullah Ibrahim
Executive producer: Matthias Winckelmann
(p) 1989 Enja Records
ENJA CD 6018 2
 
EAC extraction logfile from 14. December 2008, 20:16
Exact Audio Copy V0.99 prebeta 4 from 23. January 2008
EAC extraction logfile from 14. December 2008, 20:16
Abdullah Ibrahim / African River
Used drive : PLEXTOR DVDR PX-760A Adapter: 0 ID: 0
Read mode : Secure
Utilize accurate stream : Yes
Defeat audio cache : Yes
Make use of C2 pointers : No
Read offset correction : 30
Overread into Lead-In and Lead-Out : Yes
Fill up missing offset samples with silence : Yes
Delete leading and trailing silent blocks : No
Null samples used in CRC calculations : Yes
Used interface : Native Win32 interface for Win NT & 2000
Gap handling : Appended to previous track
Used output format : User Defined Encoder
Selected bitrate : 128 kBit/s
Quality : High
Add ID3 tag : No
Command line compressor : C:\Program Files\FLAC\flac.exe
Additional command line options : -8 -V -T "ARTIST=%a" -T "TITLE=%t" -T "ALBUM=%g" -T "DATE=%y" -T "TRACKNUMBER=%n" -T "GENRE=%m" -T "COMMENT=EAC FLAC -8" %s
TOC of the extracted CD
Track | Start | Length | Start sector | End sector
---------------------------------------------------------
1 | 0:00.33 | 3:30.67 | 33 | 15849
2 | 3:31.25 | 9:47.65 | 15850 | 59939
3 | 13:19.15 | 5:50.08 | 59940 | 86197
4 | 19:09.23 | 4:27.40 | 86198 | 106262
5 | 23:36.63 | 5:56.40 | 106263 | 133002
6 | 29:33.28 | 8:31.22 | 133003 | 171349
7 | 38:04.50 | 3:59.53 | 171350 | 189327
8 | 42:04.28 | 3:33.50 | 189328 | 205352
Track 1
Filename J:\Abdullah Ibrahim - African River (1989) [FLAC]\01 - Toi-Toi.wav
Pre-gap length 0:00:02.33
Peak level 94.2 %
Track quality 100.0 %
Test CRC 7A1E1248
Copy CRC 7A1E1248
Cannot be verified as accurate (confidence 2) [8DF84FF3], AccurateRip returned [BFDEA584]
Copy OK
Track 2
Filename J:\Abdullah Ibrahim - African River (1989) [FLAC]\02 - African River.wav
Pre-gap length 0:00:03.60
Peak level 83.9 %
Track quality 100.0 %
Test CRC F6B145C6
Copy CRC F6B145C6
Cannot be verified as accurate (confidence 2) [446CFAED], AccurateRip returned [D73D2B5E]
Copy OK
Track 3
Filename J:\Abdullah Ibrahim - African River (1989) [FLAC]\03 - Joan - Capetown Flower.wav
Pre-gap length 0:00:03.50
Peak level 80.1 %
Track quality 100.0 %
Test CRC 4816732B
Copy CRC 4816732B
Cannot be verified as accurate (confidence 2) [FBAC8FF4], AccurateRip returned [53C7AB8A]
Copy OK
Track 4
Filename J:\Abdullah Ibrahim - African River (1989) [FLAC]\04 - Chisa.wav
Pre-gap length 0:00:03.70
Peak level 80.1 %
Track quality 100.0 %
Test CRC FA5DF047
Copy CRC FA5DF047
Cannot be verified as accurate (confidence 2) [91F1C47E], AccurateRip returned [20464696]
Copy OK
Track 5
Filename J:\Abdullah Ibrahim - African River (1989) [FLAC]\05 - Sweet Samba.wav
Pre-gap length 0:00:02.70
Peak level 80.1 %
Track quality 100.0 %
Test CRC F60F6A99
Copy CRC F60F6A99
Cannot be verified as accurate (confidence 2) [3594555E], AccurateRip returned [1CC53199]
Copy OK
Track 6
Filename J:\Abdullah Ibrahim - African River (1989) [FLAC]\06 - Duke 88.wav
Pre-gap length 0:00:03.50
Peak level 80.1 %
Track quality 100.0 %
Test CRC 352F7575
Copy CRC 352F7575
Cannot be verified as accurate (confidence 2) [065C3B80], AccurateRip returned [650CED02]
Copy OK
Track 7
Filename J:\Abdullah Ibrahim - African River (1989) [FLAC]\07 - The Wedding.wav
Pre-gap length 0:00:04.05
Peak level 80.1 %
Track quality 100.0 %
Test CRC 54C4AAF2
Copy CRC 54C4AAF2
Cannot be verified as accurate (confidence 2) [AC16F282], AccurateRip returned [8E069C79]
Copy OK
Track 8
Filename J:\Abdullah Ibrahim - African River (1989) [FLAC]\08 - The Mountain of the Night.wav
Pre-gap length 0:00:05.03
Peak level 75.3 %
Track quality 100.0 %
Test CRC 3E3FE0B2
Copy CRC 3E3FE0B2
Cannot be verified as accurate (confidence 2) [E64BD8B6], AccurateRip returned [915178B2]
Copy OK
No tracks could be verified as accurate
You may have a different pressing from the one(s) in the database
No errors occurred
End of status report
Собственный рип с оригинального издания.
В комплекте полный набор сканов PNG/300dpi.
По всем вопросам пишите личное сообщение пользователю M0p94ok.
05:43
423
Нет комментариев. Ваш будет первым!