Поиск

(Latin Jazz) Billy Cobham & Asere - De Cuba Y De Panama - 2008, FLAC (tracks+.cue), lossless

(Latin Jazz) Billy Cobham & Asere - De Cuba Y De Panama - 2008, FLAC (tracks+.cue), lossless
Треклист:
Billy Cobham & Asere - De Cuba Y De Panama
Жанр: Latin Jazz
Год выпуска диска: 2008
Производитель диска: 56:43
Аудио кодек: FLAC
Тип рипа: tracks+.cue
Битрейт аудио: lossless
Трэклист:
1. Desinto
2. De Cuba Y De Panama
3. Llanera
4. Panama
5. Decir Asere
6. Hoja, Otano Y Flor
7. Gypsy Soul
8. Guando Existe Amor (Llorando Muchos Estan)
Состав:
Billy Cobham: Drums, Bongos
Vicente Arencibia: Congas, Guira , Timbales, Egg shakers, Chorus
Michel Padron: Trompet, Chorus
David Echevarria: Lead vocal, Maracas, Guiro , Cowbell, Claves
Juan 'Luz Brillante' Alarcon: Bongos, Cowbell, Cajon, shakers, Congas
Michel Salazar: Bass, Chorus
Alejandro 'El Flecha' Albar: Steel guitars, Tres, Second Spanish guitar, Chorus
Michel Padron: Spanish guitars, Guira, Chorus
За релиз вновь благодарим безымянного блоггера с "All That Music!"
Билли Кобэм с септетом молодых кубинских музыкантов радуют нас отличным альбомом!
 
EAC extraction logfile
Exact Audio Copy V0.99 prebeta 4 from 23. January 2008
EAC extraction logfile from 25. July 2008, 16:47
Billy Cobham & Asere / De Cuba Y De Panama
Used drive : PLEXTOR CD-R PREMIUM2 Adapter: 1 ID: 1
Read mode : Secure
Utilize accurate stream : Yes
Defeat audio cache : Yes
Make use of C2 pointers : No
Read offset correction : 30
Overread into Lead-In and Lead-Out : No
Fill up missing offset samples with silence : Yes
Delete leading and trailing silent blocks : No
Null samples used in CRC calculations : Yes
Used interface : Installed external ASPI interface
Gap handling : Appended to previous track
Used output format : User Defined Encoder
Selected bitrate : 32 kBit/s
Quality : High
Add ID3 tag : No
Command line compressor : C:\Programmi\FLAC\flac.exe
Additional command line options : -8 -V -T "ARTIST=%a" -T "TITLE=%t" -T "ALBUM=%g" -T "DATE=%y" -T "TRACKNUMBER=%n" -T "GENRE=%m" -T "COMMENT=EAC FLAC -8" %s
TOC of the extracted CD
Track | Start | Length | Start sector | End sector
---------------------------------------------------------
1 | 0:00.00 | 9:18.14 | 0 | 41863
2 | 9:18.14 | 5:50.18 | 41864 | 68131
3 | 15:08.32 | 4:08.44 | 68132 | 86775
4 | 19:17.01 | 6:19.03 | 86776 | 115203
5 | 25:36.04 | 8:50.56 | 115204 | 155009
6 | 34:26.60 | 10:09.70 | 155010 | 200754
7 | 44:36.55 | 6:56.66 | 200755 | 232020
8 | 51:33.46 | 5:09.32 | 232021 | 255227
Track 1
Filename C:\My Rip\01 - Desinto.wav
Pre-gap length 0:00:02.00
Peak level 100.0 %
Track quality 99.9 %
Test CRC FFAFAE76
Copy CRC FFAFAE76
Track not present in AccurateRip database
Copy OK
Track 2
Filename C:\My Rip\02 - De Cuba Y De Panama.wav
Pre-gap length 0:00:01.53
Peak level 100.0 %
Track quality 100.0 %
Test CRC B253641D
Copy CRC B253641D
Track not present in AccurateRip database
Copy OK
Track 3
Filename C:\My Rip\03 - Llanera.wav
Pre-gap length 0:00:01.53
Peak level 100.0 %
Track quality 100.0 %
Test CRC 8240411A
Copy CRC 8240411A
Track not present in AccurateRip database
Copy OK
Track 4
Filename C:\My Rip\04 - Panama.wav
Pre-gap length 0:00:01.38
Peak level 90.8 %
Track quality 100.0 %
Test CRC 82BA98C1
Copy CRC 82BA98C1
Track not present in AccurateRip database
Copy OK
Track 5
Filename C:\My Rip\05 - Decir Asere.wav
Pre-gap length 0:00:01.45
Peak level 99.9 %
Track quality 100.0 %
Test CRC 4B58B1FE
Copy CRC 4B58B1FE
Track not present in AccurateRip database
Copy OK
Track 6
Filename C:\My Rip\06 - Hoja, Otano Y Flor.wav
Pre-gap length 0:00:02.32
Peak level 89.0 %
Track quality 100.0 %
Test CRC AC587864
Copy CRC AC587864
Track not present in AccurateRip database
Copy OK
Track 7
Filename C:\My Rip\07 - Gypsy Soul.wav
Pre-gap length 0:00:01.90
Peak level 100.0 %
Track quality 100.0 %
Test CRC 0B0781C8
Copy CRC 0B0781C8
Track not present in AccurateRip database
Copy OK
Track 8
Filename C:\My Rip\08 - Guando Existe Amor (Llorando Muchos Estan).wav
Pre-gap length 0:00:01.69
Peak level 89.0 %
Track quality 100.0 %
Test CRC 91E18AAC
Copy CRC 91E18AAC
Track not present in AccurateRip database
Copy OK
None of the tracks are present in the AccurateRip database
No errors occurred
End of status report
Приятных впечатлений!
По всем вопросам пишите личное сообщение пользователю M0p94ok.
05:43
392
Нет комментариев. Ваш будет первым!