Поиск

(Pop/Funk) [CDM] Natalie Cole - Miss You Like Crazy (Maxi CD Single) - 1989, FLAC (tracks+.cue), lossless

(Pop/Funk) [CDM] Natalie Cole - Miss You Like Crazy (Maxi CD Single) - 1989, FLAC (tracks+.cue), lossless
Треклист:
Natalie Cole - Miss You Like Crazy
Жанр: Pop/Funk
Носитель: CDM
Страна-производитель диска (релиза): UK & Europe
Год издания: 1989
Издатель (лейбл): EMI USA
Номер по каталогу: CDMT 63
Аудиокодек: FLAC (*.flac)
Тип рипа: tracks+.cue
Битрейт аудио: lossless
Продолжительность: 00:19:49
Источник (релизер): own rip
Наличие сканов в содержимом раздачи: нет

1. Natalie Cole - I Miss You Like Crazy (3:56)
2. Natalie Cole - I Live For Your Love (4:29)
3. Natalie Cole - Urge To Merge (12'' Vocal Mix) (7:04)
4. Natalie Cole - Good To Be Back (4:20)
 
Лог создания рипа
Exact Audio Copy V1.0 beta 3 from 29. August 2011
EAC extraction logfile from 2. January 2016, 20:02
Natalie Cole / I Miss You Like Crazy (Maxi CD Single)
Used drive : TSSTcorpCDDVDW SN-208BB Adapter: 0 ID: 0
Read mode : Secure
Utilize accurate stream : Yes
Defeat audio cache : Yes
Make use of C2 pointers : No
Read offset correction : 6
Overread into Lead-In and Lead-Out : No
Fill up missing offset samples with silence : Yes
Delete leading and trailing silent blocks : No
Null samples used in CRC calculations : Yes
Used interface : Native Win32 interface for Win NT & 2000
Gap handling : Appended to previous track
Used output format : User Defined Encoder
Selected bitrate : 1024 kBit/s
Quality : High
Add ID3 tag : No
Command line compressor : C:\Program Files (x86)\Exact Audio Copy\Flac\flac.exe
Additional command line options : -8 -V -T "artist=%artist%" -T "title=%title%" -T "album=%albumtitle%" -T "date=%year%" -T "tracknumber=%tracknr%" -T "genre=%genre%" %source%
TOC of the extracted CD
Track | Start | Length | Start sector | End sector
---------------------------------------------------------
1 | 0:00.00 | 3:55.57 | 0 | 17681
2 | 3:55.57 | 4:28.60 | 17682 | 37841
3 | 8:24.42 | 7:04.15 | 37842 | 69656
4 | 15:28.57 | 4:20.20 | 69657 | 89176
Track 1
Filename E:\Torrent\Natalie Cole - Miss You Like Crazy (Maxi CD Single)\01 I Miss You Like Crazy.wav
Pre-gap length 0:00:02.00
Peak level 100.0 %
Extraction speed 1.8 X
Track quality 100.0 %
Test CRC 5F81D654
Copy CRC 5F81D654
Accurately ripped (confidence 3) [C41E60AA] (AR v2)
Copy OK
Track 2
Filename E:\Torrent\Natalie Cole - Miss You Like Crazy (Maxi CD Single)\02 I Live For Your Love.wav
Pre-gap length 0:00:01.22
Peak level 78.1 %
Extraction speed 2.0 X
Track quality 100.0 %
Test CRC 70238F1B
Copy CRC 70238F1B
Accurately ripped (confidence 3) [F90140D5] (AR v2)
Copy OK
Track 3
Filename E:\Torrent\Natalie Cole - Miss You Like Crazy (Maxi CD Single)\03 Urge To Merge (12'' Vocal Mix).wav
Pre-gap length 0:00:01.27
Peak level 100.0 %
Extraction speed 2.4 X
Track quality 100.0 %
Test CRC 548D5EB4
Copy CRC 548D5EB4
Accurately ripped (confidence 3) [CC81D1F3] (AR v2)
Copy OK
Track 4
Filename E:\Torrent\Natalie Cole - Miss You Like Crazy (Maxi CD Single)\04 Good To Be Back.wav
Pre-gap length 0:00:02.12
Peak level 100.0 %
Extraction speed 2.2 X
Track quality 99.9 %
Test CRC 258158DC
Copy CRC 258158DC
Accurately ripped (confidence 4) [7FFC837D] (AR v2)
Copy OK
All tracks accurately ripped
No errors occurred
End of status report
==== Log checksum EEB5906A2906526F86BD607B5D51FF74FCC5AAD8737F392051468F4331C3FAB2 ====
 
Содержание индексной карты (.CUE)
REM GENRE Pop
REM DATE 1989
REM DISCID 2504A504
REM COMMENT "ExactAudioCopy v1.0b3"
CATALOG 0099920332124
PERFORMER "Natalie Cole"
TITLE "I Miss You Like Crazy (Maxi CD Single)"
FILE "01 I Miss You Like Crazy.wav" WAVE
TRACK 01 AUDIO
TITLE "I Miss You Like Crazy"
PERFORMER "Natalie Cole"
INDEX 01 00:00:00
TRACK 02 AUDIO
TITLE "I Live For Your Love"
PERFORMER "Natalie Cole"
INDEX 00 03:54:35
FILE "02 I Live For Your Love.wav" WAVE
INDEX 01 00:00:00
TRACK 03 AUDIO
TITLE "Urge To Merge (12'' Vocal Mix)"
PERFORMER "Natalie Cole"
INDEX 00 04:27:33
FILE "03 Urge To Merge (12'' Vocal Mix).wav" WAVE
INDEX 01 00:00:00
TRACK 04 AUDIO
TITLE "Good To Be Back"
PERFORMER "Natalie Cole"
INDEX 00 07:02:03
FILE "04 Good To Be Back.wav" WAVE
INDEX 01 00:00:00
Приватный:
Нет (DHT включён)
Размер:
132.37 Мб (138,801,047 байт) » файлов: 7
Участники:
0 раздают, 0 качают (0 участников всего)
Внешние участники:
2 раздают, 1 качают (3 участников всего) [ Обновить ]
Есть вопросы - пишите личное сообщение пользователю M0p94ok.
09:17
59
Нет комментариев. Ваш будет первым!