Поиск

(Pop Soul/Rhythm'n'Blues) [CD] Lizz Wright - Freedom & Surrender - 2015, FLAC (image+.cue), lossless

(Pop Soul/Rhythm'n'Blues) [CD] Lizz Wright - Freedom & Surrender - 2015, FLAC (image+.cue), lossless
Треклист:
Lizz Wright / Freedom & Surrender
Жанр: Pop Soul/Rhythm'n'Blues
Носитель: CD
Страна-производитель диска (релиза): EU
Год издания: 2015
Издатель (лейбл): Concord Records/Universal
Номер по каталогу: 0888072372207
Аудиокодек: FLAC (*.flac)
Тип рипа: image+.cue
Битрейт аудио: lossless
Продолжительность: 61'43''
Источник (релизер): RedHotBlues
Наличие сканов в содержимом раздачи: да
Треклист:
CD: Lizz Wright - Freedom & Surrender
SIEM/SDRM 088072372207
01. Freedom [0:05:07.18]
02. The Game [0:02:57.68]
03. The New Game [0:03:27.35]
04. Lean In [0:05:21.09]
05. Right Where You Are (Feat. Gregory Porter) [0:05:26.05]
06. River Man [0:05:33.41]
07. Somewhere Down The Mystic [0:05:29.00]
08. Real Life Painting [0:03:36.00]
09. To Love Somebody [0:05:07.21]
10. Here And Now [0:04:30.19]
11. You [0:05:16.45]
12. Blessed The Brave [0:03:41.61]
13. Surrender [0:06:07.01]
 
Лог создания рипа
Exact Audio Copy V1.1 from 23. June 2015
Отчёт EAC об извлечении, выполненном 5. ноября 2015, 20:25
Lizz Wright / Freedom & Surrender
Дисковод: ATAPI iHAS122 C Adapter: 1 ID: 1
Режим чтения : Достоверность
Использование точного потока : Да
Отключение кэша аудио : Да
Использование указателей C2 : Нет
Коррекция смещения при чтении : 6
Способность читать области Lead-in и Lead-out : Нет
Заполнение пропущенных сэмплов тишиной : Да
Удаление блоков с тишиной в начале и конце : Нет
При вычислениях CRC использовались нулевые сэмплы : Да
Интерфейс : Встроенный Win32-интерфейс для Win NT/2000
Выходной формат : Пользовательский кодировщик
Выбранный битрейт : 768 kBit/s
Качество : Высокий
Добавление ID3-тега : Нет
Утилита сжатия : C:\Program Files\Exact Audio Copy\FLAC\FLAC.EXE
Дополнительные параметры : -6 -V -T "ARTIST=%artist%" -T "TITLE=%title%" -T "ALBUM=%albumtitle%" -T "DATE=%year%" -T "TRACKNUMBER=%tracknr%" -T "GENRE=%genre%" -T "COMMENT=%comment%" -T "BAND=%albuminterpret%" -T "ALBUMARTIST=%albuminterpret%" -T "COMPOSER=%composer%" %haslyrics%--tag-from-file=LYRICS="%lyricsfile%"%haslyrics% -T "DISCNUMBER=%cdnumber%" -T "TOTALDISCS=%totalcds%" -T "TOTALTRACKS=%numtracks%" %hascover%--picture="%coverfile%"%hascover% %source% -o %dest%
TOC извлечённого CD
Трек | Старт | Длительность | Начальный сектор | Конечный сектор
---------------------------------------------------------------------
1 | 0:00.00 | 5:07.18 | 0 | 23042
2 | 5:07.18 | 2:57.68 | 23043 | 36385
3 | 8:05.11 | 3:27.35 | 36386 | 51945
4 | 11:32.46 | 5:21.09 | 51946 | 76029
5 | 16:53.55 | 5:26.05 | 76030 | 100484
6 | 22:19.60 | 5:33.41 | 100485 | 125500
7 | 27:53.26 | 5:29.00 | 125501 | 150175
8 | 33:22.26 | 3:36.00 | 150176 | 166375
9 | 36:58.26 | 5:07.21 | 166376 | 189421
10 | 42:05.47 | 4:30.19 | 189422 | 209690
11 | 46:35.66 | 5:16.45 | 209691 | 233435
12 | 51:52.36 | 3:41.61 | 233436 | 250071
13 | 55:34.22 | 6:07.01 | 250072 | 277597
Характеристики диапазона извлечения и сообщения об ошибках
Выбранный диапазон
Имя файла D:\UPLOADS-3\Lizz Wright - Freedom & Surrender - 2015 - 61'43''\Lizz Wright - Freedom & Surrender.wav
Пиковый уровень 98.8 %
Скорость извлечения 3.5 X
Качество диапазона 100.0 %
CRC теста D78D0626
CRC копии D78D0626
Копирование... OK
Ошибок не произошло
Конец отчёта
---- CUETools DB Plugin V2.1.6
[CTDB TOCID: s__k3f_5UqUT6ch7UGgfAnj3wFc-] found
Submit result: s__k3f_5UqUT6ch7UGgfAnj3wFc- has been confirmed
Track | CTDB Status
1 | (34/35) Accurately ripped
2 | (34/35) Accurately ripped
3 | (34/35) Accurately ripped
4 | (34/35) Accurately ripped
5 | (34/35) Accurately ripped
6 | (35/35) Accurately ripped
7 | (35/35) Accurately ripped
8 | (35/35) Accurately ripped
9 | (35/35) Accurately ripped
10 | (35/35) Accurately ripped
11 | (35/35) Accurately ripped
12 | (35/35) Accurately ripped
13 | (35/35) Accurately ripped
==== Контрольная сумма отчёта E59D8A9001924AFB2001BB390B75B792604397D775C74305FADA82A788B15ACE ====
 
Лог проверки качества
-----------------------
DON'T MODIFY THIS FILE
-----------------------
PERFORMER: auCDtect Task Manager, ver. 1.5.1RC4 build 1.5.1.5
Copyright (c) 2008-2010 y-soft. All rights reserved
http://y-soft.org
ANALYZER: auCDtect: CD records authenticity detector, version 0.8.2
Copyright (c) 2004 Oleg Berngardt. All rights reserved.
Copyright (c) 2004 Alexander Djourik. All rights reserved.
FILE: Lizz Wright - Freedom & Surrender.flac
Size: 390974855 Hash: 53593CA743241F88D9B59028CBF5809C Accuracy: -m0
Conclusion: CDDA 100%
Signature: 600506F3EB1DB17ABE9466015D332DA04E3450A6
Доп. информация: Параллельная ВЭБ-раздача
http://rutracker.org/forum/viewtopic.php?t=5095856
Приватный:
Нет (DHT включён)
Размер:
412.08 Мб (432,100,140 байт) » файлов: 13
Участники:
0 раздают, 0 качают (0 участников всего)
Внешние участники:
5 раздают, 2 качают (7 участников всего) [ Обновить ]
Есть вопросы - пишите личное сообщение пользователю M0p94ok.
08:40
83
Нет комментариев. Ваш будет первым!